<?xml version="1.0" standalone="no"?>
<!DOCTYPE svg PUBLIC "-//W3C//DTD SVG 1.1//EN" "http://www.w3.org/Graphics/SVG/1.1/DTD/svg11.dtd" >
<svg>
<metadata>
Created by FontForge 20090914 at Wed Jul 13 12:00:45 2011
 By www-data
(c) 2000 Borna Rayaneh
</metadata>
<defs>
<font id="BNazanin" horiz-adv-x="0" >
  <font-face 
    font-family="B Nazanin"
    font-weight="400"
    font-stretch="normal"
    units-per-em="2048"
    panose-1="0 0 4 0 0 0 0 0 0 0"
    ascent="1638"
    descent="-410"
    bbox="-211 -1045 1990 1918"
    underline-thickness="60"
    underline-position="-650"
    unicode-range="U+0020-U+FEFC"
  />
<missing-glyph horiz-adv-x="1024" 
d="M128 0v1343h768v-1343h-768zM256 128h512v1087h-512v-1087z" />
    <glyph glyph-name="uE818" unicode="&#x651;&#x64b;" 
d="M398 1621l-302 -124v79l302 120v-75zM429 1326c0 -34 -9.66992 -63.0029 -29.0029 -87.0029c-21.333 -25.333 -48.666 -38 -81.999 -38c-34 0 -61 17.667 -81 53c-30.667 -36.667 -67 -55 -109 -55c-27.333 0 -50.333 13.667 -69 41c-14.667 22 -22 43.333 -22 64
c0 18.667 5.33301 39.334 16 62.001c12.667 27.333 27 41 43 41c8 0 12 -6 12 -18c0 -5.33301 -0.666992 -13.666 -2 -24.999s-2 -19.666 -2 -24.999c0 -30 14 -45 42 -45s47.333 11 58 33c2.66699 5.33301 8.33398 27 17.001 65c2.66699 12 9.33398 18 20.001 18
s16.667 -6.66699 18 -20c7.33301 -67.333 27 -101 59 -101c30.667 0 46 16 46 48c0 13.333 -2.66699 29 -8 47l51 41c14.667 -22.667 22 -55.667 22 -99zM397.997 1806l-302 -124v79l302 119v-74z" />
    <glyph glyph-name="uFC5E" unicode="&#x651;&#x64c;" arabic-form="isolated" 
d="M438 1399c0 -34 -9.66992 -63.001 -29.0029 -87.001c-21.333 -25.333 -48.666 -38 -81.999 -38c-34.667 0 -61.667 17.667 -81 53c-31.333 -37.333 -67.666 -56 -108.999 -56c-24.667 0 -46 11.333 -64 34s-27 46.667 -27 72c0 18.667 5.33301 39.334 16 62.001
c12.667 27.333 27 41 43 41c8 0 12 -6 12 -18c0 -6 -0.666992 -14.5 -2 -25.5s-2 -19.5 -2 -25.5c0 -30 14 -45 42 -45s47.333 11 58 33c3.33301 7.33301 9 29 17 65c2.66699 12.667 9.33398 19 20.001 19s16.667 -7 18 -21c7.33301 -67.333 27 -101 59 -101
c30.667 0 46 16 46 48c0 13.333 -2.66699 29 -8 47l51 42c14.667 -24 22 -57 22 -99zM448.997 1831c0 -28 -21.667 -66.001 -65 -114.001c6.66699 -4 20.334 -9 41.001 -15l-35 -60c-30 5.33301 -55.667 15.666 -77 30.999c-72 -42.667 -135.333 -64 -190 -64
c-18.667 0 -38 22 -58 66c27.333 0 45.666 1.66699 54.999 5c14.667 16.667 22 33.334 22 50.001c0 17.333 -9 26 -27 26c-14.667 0 -30 -8.66699 -46 -26l-10 47c24 27.333 48.667 41 74 41c8.66699 0 17.334 -2 26.001 -6c23.333 -10.667 35 -31 35 -61
c0 -23.333 -7 -45.666 -21 -66.999c45.333 4 77.666 13.667 96.999 29c-22 37.333 -33 63 -33 77c0 30 20.333 60 61 90c34.667 25.333 61 38 79 38c48 0 72 -29 72 -87zM377.997 1821c0 19.333 -10.333 29 -31 29c-28 0 -42 -13.667 -42 -41c0 -22 11.333 -42.333 34 -61
c26 16 39 40.333 39 73z" />
    <glyph glyph-name="uFC5F" unicode="&#x651;&#x64d;" arabic-form="isolated" 
d="M381 1761c0 -34 -9.66992 -63.001 -29.0029 -87.001c-21.333 -25.333 -48.666 -38 -81.999 -38c-34.667 0 -61.667 17.667 -81 53c-31.333 -37.333 -67.666 -56 -108.999 -56c-24.667 0 -46 11.333 -64 34s-27 46.667 -27 72c0 18.667 5.33301 39.334 16 62.001
c12.667 27.333 27 41 43 41c8 0 12 -6 12 -18c0 -6 -0.666992 -14.5 -2 -25.5s-2 -19.5 -2 -25.5c0 -30 14 -45 42 -45s47.333 11 58 33c3.33301 7.33301 9 29 17 65c2.66699 12.667 9.33398 19 20.001 19s16.667 -7 18 -21c7.33301 -67.333 27 -101 59 -101
c30.667 0 46 16 46 48c0 13.333 -2.66699 29 -8 47l51 42c14.667 -24 22 -57 22 -99zM332.997 1500l-302 -123v78l302 120v-75zM332.997 1340l-302 -123v78l302 120v-75z" />
    <glyph glyph-name="uFC60" unicode="&#x651;&#x64e;" arabic-form="isolated" 
d="M457 1368c0 -34 -9.66992 -63.001 -29.0029 -87.001c-21.333 -25.333 -48.666 -38 -81.999 -38c-34.667 0 -61.667 17.667 -81 53c-31.333 -37.333 -67.666 -56 -108.999 -56c-24.667 0 -46 11.333 -64 34s-27 46.667 -27 72c0 18.667 5.33301 39.334 16 62.001
c12.667 27.333 27 41 43 41c8 0 12 -6 12 -18c0 -6 -0.666992 -14.5 -2 -25.5s-2 -19.5 -2 -25.5c0 -30 14 -45 42 -45s47.333 11 58 33c3.33301 7.33301 9 29 17 65c2.66699 12.667 9.33398 19 20.001 19s16.667 -7 18 -21c7.33301 -67.333 27 -101 59 -101
c30.667 0 46 16 46 48c0 13.333 -2.66699 29 -8 47l51 42c14.667 -24 22 -57 22 -99zM430.997 1697l-302 -124v79l302 119v-74z" />
    <glyph glyph-name="uFC61" unicode="&#x651;&#x64f;" arabic-form="isolated" 
d="M490 1345c0 -34 -9.66992 -63.0029 -29.0029 -87.0029c-21.333 -25.333 -48.666 -38 -81.999 -38c-34 0 -61 17.667 -81 53c-30.667 -36.667 -67 -55 -109 -55c-27.333 0 -50.333 13.667 -69 41c-14.667 22 -22 43.333 -22 64c0 18.667 5.33301 39.334 16 62.001
c12.667 27.333 27 41 43 41c8 0 12 -6 12 -18c0 -5.33301 -0.666992 -13.666 -2 -24.999s-2 -19.666 -2 -24.999c0 -30 14 -45 42 -45s47.333 11 58 33c2.66699 5.33301 8.33398 27 17.001 65c2.66699 12 9.33398 18 20.001 18s16.667 -6.66699 18 -20
c7.33301 -67.333 27 -101 59 -101c30.667 0 46 16 46 48c0 13.333 -2.66699 29 -8 47l51 41c14.667 -22.667 22 -55.667 22 -99zM482.997 1739c0 -28 -21.334 -65.667 -64.001 -113c6 -4.66699 19.333 -9.66699 40 -15l-34 -61c-31.333 6 -57 16.333 -77 31
c-75.333 -42.667 -138.666 -64 -189.999 -64c-20 0 -39.333 22.333 -58 67c57.333 1.33301 96 3.33301 116 6c40 5.33301 69.333 16 88 32c-21.333 38 -32 63.667 -32 77c0 29.333 20.333 59 61 89c34.667 26 60.667 39 78 39c22 0 40 -9.33301 54 -28
c12 -17.333 18 -37.333 18 -60zM411.996 1729c0 20 -10 30 -30 30c-10 0 -19.833 -4.33301 -29.5 -13s-14.5 -18 -14.5 -28c0 -22.667 11.667 -43 35 -61c26 16 39 40 39 72z" />
    <glyph glyph-name="uFC62" unicode="&#x651;&#x650;" arabic-form="isolated" 
d="M499 1573c0 -34 -9.66992 -63.001 -29.0029 -87.001c-21.333 -25.333 -48.666 -38 -81.999 -38c-34.667 0 -61.667 17.667 -81 53c-31.333 -37.333 -67.666 -56 -108.999 -56c-24.667 0 -46 11.333 -64 34s-27 46.667 -27 72c0 18.667 5.33301 39.334 16 62.001
c12.667 27.333 27 41 43 41c8 0 12 -6 12 -18c0 -6 -0.666992 -14.5 -2 -25.5s-2 -19.5 -2 -25.5c0 -30 14 -45 42 -45s47.333 11 58 33c3.33301 7.33301 9 29 17 65c2.66699 12.667 9.33398 19 20.001 19s16.667 -7 18 -21c7.33301 -67.333 27 -101 59 -101
c30.667 0 46 16 46 48c0 13.333 -2.66699 29 -8 47l51 42c14.667 -24 22 -57 22 -99zM450.997 1312l-302 -123v78l302 120v-75z" />
    <glyph glyph-name="uFDF2" unicode="&#xfedf;&#xfee0;&#xfeea;" horiz-adv-x="1419" arabic-form="isolated" 
d="M979 1214c0 -62 -14 -92.999 -42 -92.999c1.33301 12 2 23.667 2 35c0 45.333 -9 83.666 -27 114.999c13.333 28.667 31 43 53 43c9.33301 -30.667 14 -64 14 -100zM1112 1026c0 -26.667 -8.33496 -49.833 -25.002 -69.5s-38 -29.5 -64 -29.5c-28 0 -49.667 14 -65 42
c-26 -50 -56 -75 -90 -75c-20 0 -36.667 8 -50 24s-20 34.333 -20 55c0 15.333 4.33301 32 13 50c10 22 21.667 33 35 33c6 0 9 -4.33301 9 -13c0 -4 -0.666992 -10.167 -2 -18.5s-2 -14.5 -2 -18.5c0 -21.333 11 -32 33 -32c22.667 0 38.334 10 47.001 30l14 57
c3.33301 13.333 10 20 20 20c6 0 9.66699 -4.33301 11 -13c6.66699 -48 22.334 -72 47.001 -72s37 13 37 39c0 10.667 -2 23 -6 37l40 33c12 -20 18 -46.333 18 -79zM1415 285.002c0 -189.333 -66.333 -284.002 -199 -284.002c-130.667 0 -214.334 61.333 -251.001 184
c-37.333 -122.667 -107.666 -184 -210.999 -184h-17c-121.333 0 -193.333 71 -216 213c-54.667 -65.333 -86.667 -98 -96 -98h-43c-43.333 0 -88.333 7.66699 -135 23c-61.333 20 -92 47.667 -92 83c0 76 21 140.667 63 194c30 38 121.333 87.333 274 148l1 88l87 97
c5.33301 -18.667 8 -55.667 8 -111v-102c0 -158 12.667 -263.667 38 -317c22 -46.667 61 -70 117 -70h13c48 0 86.5 15.833 115.5 47.5s43.5 71.834 43.5 120.501v205c0 80.667 -3.66699 166.334 -11 257.001l109 91v-465c0 -69.333 15 -127.333 45 -174
c34.667 -54.667 85 -82 151 -82c74 0 111 38.333 111 115c0 91.333 -26 275.666 -78 552.999l102 99c47.333 -255.333 71 -465.666 71 -630.999zM512.998 262l-15.999 203.001c-46.667 -14 -95.334 -32.333 -146.001 -55c-76.667 -34.667 -115 -63.334 -115 -86.001
s28.667 -41 86 -55c41.333 -10 79 -15 113 -15c28 0 54 2.66699 78 8z" />
    <glyph glyph-name="uFEF5" unicode="&#xfedf;&#xfe82;" horiz-adv-x="988" arabic-form="isolated" 
d="M976 1011c2.66699 -6.66699 6.33398 -17.3311 11.001 -31.998c-2.66699 -1.33301 -10 -2 -22 -2h-37c0 -106.667 -11.667 -215 -35 -325c-30 -141.333 -74 -251.666 -132 -330.999c29.333 -56.667 44 -110.334 44 -161.001c0 -30 -6.66699 -62.333 -20 -97
c-16 -42 -36.333 -66 -61 -72c-114 -26.667 -236 -35.334 -366 -26.001l42 141c124.667 58 214.667 125 270 201c-126 172 -269 338 -429 498l-25 -42c-88.667 96 -133 155.333 -133 178c0 23.333 8 67.333 24 132c4 16.667 8.33301 25 13 25s18 -10 40 -30
c248 -227.333 435.333 -456 562 -686c48 81.333 77.333 191.666 88 330.999c9.33301 120.667 8.66602 248.667 -2.00098 384l108 100c23.333 -77.333 43.333 -139.333 60 -186zM736 129.003c0.666992 6 0.999023 11.999 0.999023 17.999c0 36 -12 71 -36 105
c-42.667 -51.333 -95 -100.666 -157 -147.999c16 -1.33301 31.333 -2 46 -2c60.667 0 109.334 9 146.001 27zM365.999 1310c-56 -46 -125.004 -69 -207.004 -69c-12 0 -30 1.66699 -54 5s-42 5 -54 5c-7.33301 0 -18.666 -9.5 -33.999 -28.5s-26 -28.5 -32 -28.5
c-11.333 0 -17 8 -17 24c0 11.333 7.33301 33 22 65c16.667 36 31 54 43 54c16.667 0 41.334 -2.83301 74.001 -8.5s57.334 -8.5 74.001 -8.5c74.667 0 129.334 5 164.001 15c18 5.33301 30.667 8 38 8c6 0 9 -1.33301 9 -4c0 -5.33301 -8.66699 -15 -26 -29z" />
    <glyph glyph-name="uFEF6" unicode="&#xfee0;&#xfe82;" horiz-adv-x="1170" arabic-form="final" 
d="M1196 1l-76.002 -0.00195312c-159.333 0 -239 113 -239 339c0 24.667 1 63 3 115c-98 -243.333 -221.667 -417.333 -371 -522c-94 -22 -206.333 -34.333 -337 -37c-28 -0.666992 -42 1.33301 -42 6c0 5.33301 40 27.333 120 66l151 71
c89.333 44.667 173.666 108.334 252.999 191.001c-33.333 128 -90.666 242 -171.999 342c-52 64 -132.667 140.333 -242 229l-15 -51c-34.667 29.333 -64 56 -88 80c-41.333 41.333 -62.333 70.333 -63 87c-1.33301 22.667 2.66699 65.667 12 129c2 14.667 5 22 9 22
s14 -5.66699 30 -17c168 -120 293 -231 375 -333c100.667 -125.333 168.667 -271.333 204 -438c47.333 60.667 86.333 129.667 117 207c33.333 84.667 49 162 47 232c-3.33301 118.667 -11.666 247.334 -24.999 386.001l108 93c10.667 -62.667 18.334 -354.667 23.001 -876
c0.666992 -115.333 51.667 -173 153 -173h65v-148zM365.998 1310c-56 -46 -125.004 -69 -207.004 -69c-12 0 -30 1.66699 -54 5s-42 5 -54 5c-7.33301 0 -18.666 -9.5 -33.999 -28.5s-26 -28.5 -32 -28.5c-11.333 0 -17 8 -17 24c0 11.333 7.33301 33 22 65
c16.667 36 31 54 43 54c16.667 0 41.334 -2.83301 74.001 -8.5s57.334 -8.5 74.001 -8.5c74.667 0 129.334 5 164.001 15c18 5.33301 30.667 8 38 8c6 0 9 -1.33301 9 -4c0 -5.33301 -8.66699 -15 -26 -29z" />
    <glyph glyph-name="uFEF7" unicode="&#xfedf;&#xfe84;" horiz-adv-x="988" arabic-form="isolated" 
d="M976 1011c2.66699 -6.66699 6.33398 -17.3311 11.001 -31.998c-2.66699 -1.33301 -10 -2 -22 -2h-37c0 -106.667 -11.667 -215 -35 -325c-30 -141.333 -74 -251.666 -132 -330.999c29.333 -56.667 44 -110.334 44 -161.001c0 -30 -6.66699 -62.333 -20 -97
c-16 -42 -36.333 -66 -61 -72c-114 -26.667 -236 -35.334 -366 -26.001l42 141c124.667 58 214.667 125 270 201c-126 172 -269 338 -429 498l-25 -42c-88.667 96 -133 155.333 -133 178c0 23.333 8 67.333 24 132c4 16.667 8.33301 25 13 25s18 -10 40 -30
c248 -227.333 435.333 -456 562 -686c48 81.333 77.333 191.666 88 330.999c9.33301 120.667 8.66602 248.667 -2.00098 384l108 100c23.333 -77.333 43.333 -139.333 60 -186zM736 129.003c0.666992 6 0.999023 11.999 0.999023 17.999c0 36 -12 71 -36 105
c-42.667 -51.333 -95 -100.666 -157 -147.999c16 -1.33301 31.333 -2 46 -2c60.667 0 109.334 9 146.001 27zM327.999 1359l-15.998 -62c-96 -19.333 -191.667 -46.333 -287 -81v47c16 10 43.667 26 83 48c-54 36.667 -81 67.667 -81 93s17.667 58.666 53 99.999
c39.333 46 76.333 69 111 69c46 0 79 -21 99 -63c6 -12.667 6.66699 -22 2 -28s-13.667 -6.33301 -27 -1c-20.667 8 -48.334 12 -83.001 12c-14.667 0 -30.667 -4.33301 -48 -13c-20.667 -10 -31 -21.333 -31 -34c0 -16 11 -33 33 -51c27.333 -22 61 -33 101 -33
c22 0 43.667 3 65 9c14 4 22.333 5.33301 25 4c3.33301 -1.33301 3.66602 -6.66602 0.999023 -15.999z" />
    <glyph glyph-name="uFEF8" unicode="&#xfee0;&#xfe84;" horiz-adv-x="1170" arabic-form="final" 
d="M1196 1l-76.002 -0.00195312c-159.333 0 -239 113 -239 339c0 24.667 1 63 3 115c-98 -243.333 -221.667 -417.333 -371 -522c-94 -22 -206.333 -34.333 -337 -37c-28 -0.666992 -42 1.33301 -42 6c0 5.33301 40 27.333 120 66l151 71
c89.333 44.667 173.666 108.334 252.999 191.001c-33.333 128 -90.666 242 -171.999 342c-52 64 -132.667 140.333 -242 229l-15 -51c-34.667 29.333 -64 56 -88 80c-41.333 41.333 -62.333 70.333 -63 87c-1.33301 22.667 2.66699 65.667 12 129c2 14.667 5 22 9 22
s14 -5.66699 30 -17c168 -120 293 -231 375 -333c100.667 -125.333 168.667 -271.333 204 -438c47.333 60.667 86.333 129.667 117 207c33.333 84.667 49 162 47 232c-3.33301 118.667 -11.666 247.334 -24.999 386.001l108 93c10.667 -62.667 18.334 -354.667 23.001 -876
c0.666992 -115.333 51.667 -173 153 -173h65v-148zM327.998 1359l-15.998 -62c-96 -19.333 -191.667 -46.333 -287 -81v47c16 10 43.667 26 83 48c-54 36.667 -81 67.667 -81 93s17.667 58.666 53 99.999c39.333 46 76.333 69 111 69c46 0 79 -21 99 -63
c6 -12.667 6.66699 -22 2 -28s-13.667 -6.33301 -27 -1c-20.667 8 -48.334 12 -83.001 12c-14.667 0 -30.667 -4.33301 -48 -13c-20.667 -10 -31 -21.333 -31 -34c0 -16 11 -33 33 -51c27.333 -22 61 -33 101 -33c22 0 43.667 3 65 9c14 4 22.333 5.33301 25 4
c3.33301 -1.33301 3.66602 -6.66602 0.999023 -15.999z" />
    <glyph glyph-name="uFEF9" unicode="&#xfedf;&#xfe88;" horiz-adv-x="988" arabic-form="isolated" 
d="M976 1011c2.66699 -6.66699 6.33398 -17.3311 11.001 -31.998c-2.66699 -1.33301 -10 -2 -22 -2h-37c0 -106.667 -11.667 -215 -35 -325c-30 -141.333 -74 -251.666 -132 -330.999c29.333 -56.667 44 -110.334 44 -161.001c0 -30 -6.66699 -62.333 -20 -97
c-16 -42 -36.333 -66 -61 -72c-114 -26.667 -236 -35.334 -366 -26.001l42 141c124.667 58 214.667 125 270 201c-126 172 -269 338 -429 498l-25 -42c-88.667 96 -133 155.333 -133 178c0 23.333 8 67.333 24 132c4 16.667 8.33301 25 13 25s18 -10 40 -30
c248 -227.333 435.333 -456 562 -686c48 81.333 77.333 191.666 88 330.999c9.33301 120.667 8.66602 248.667 -2.00098 384l108 100c23.333 -77.333 43.333 -139.333 60 -186zM736 129.003c0.666992 6 0.999023 11.999 0.999023 17.999c0 36 -12 71 -36 105
c-42.667 -51.333 -95 -100.666 -157 -147.999c16 -1.33301 31.333 -2 46 -2c60.667 0 109.334 9 146.001 27zM485.999 -375.998l-16.002 -63.001c-93.333 -18 -189 -44.667 -287 -80v47c16.667 10 44.667 25.667 84 47c-54 36.667 -81 68 -81 94c0 24.667 17.667 58 53 100
c38.667 46 75.667 69 111 69c44.667 0 77.334 -21.333 98.001 -64c6 -12.667 7 -22 3 -28c-4.66699 -5.33301 -13.667 -5.66602 -27 -0.999023c-24 8.66699 -51.667 13 -83 13c-14.667 0 -30.667 -4.33301 -48 -13c-20.667 -10 -31 -21.333 -31 -34
c0 -25.333 17 -46.333 51 -63c28 -14.667 55.667 -22 83 -22c21.333 0 43 3 65 9l11 3c4 0.666992 7.33301 1 10 1s4.33398 -0.333008 5.00098 -1c1.33301 -2 1 -6.66699 -1 -14z" />
    <glyph glyph-name="uFEFA" unicode="&#xfee0;&#xfe88;" horiz-adv-x="1170" arabic-form="final" 
d="M1196 1l-76.002 -0.00195312c-159.333 0 -239 113 -239 339c0 24.667 1 63 3 115c-98 -243.333 -221.667 -417.333 -371 -522c-94 -22 -206.333 -34.333 -337 -37c-28 -0.666992 -42 1.33301 -42 6c0 5.33301 40 27.333 120 66l151 71
c89.333 44.667 173.666 108.334 252.999 191.001c-33.333 128 -90.666 242 -171.999 342c-52 64 -132.667 140.333 -242 229l-15 -51c-34.667 29.333 -64 56 -88 80c-41.333 41.333 -62.333 70.333 -63 87c-1.33301 22.667 2.66699 65.667 12 129c2 14.667 5 22 9 22
s14 -5.66699 30 -17c168 -120 293 -231 375 -333c100.667 -125.333 168.667 -271.333 204 -438c47.333 60.667 86.333 129.667 117 207c33.333 84.667 49 162 47 232c-3.33301 118.667 -11.666 247.334 -24.999 386.001l108 93c10.667 -62.667 18.334 -354.667 23.001 -876
c0.666992 -115.333 51.667 -173 153 -173h65v-148zM468.998 -403.002l-15.998 -62.002c-100.667 -20.667 -196.334 -47.334 -287.001 -80.001v46c26 16.667 53.667 32.667 83 48c-54 36.667 -81 67.667 -81 93c0 24.667 17.667 58 53 100c38.667 46 75.667 69 111 69
c45.333 0 78.333 -21 99 -63c6 -12.667 6.66699 -22 2 -28c-4.66699 -5.33301 -13.667 -5.66602 -27 -0.999023c-22 8 -49.667 12 -83 12c-15.333 0 -31.333 -4 -48 -12c-20.667 -9.33301 -31 -20.666 -31 -33.999c0 -25.333 17 -46.333 51 -63
c28 -14.667 55.667 -22 83 -22c22 0 43.667 3 65 9c14 4 22.333 5.33301 25 4c3.33301 -1.33301 3.66602 -6.66602 0.999023 -15.999z" />
    <glyph glyph-name="uFEFB" unicode="&#xfedf;&#xfe8e;" horiz-adv-x="988" arabic-form="isolated" 
d="M976 1011c2.66699 -6.66699 6.33398 -17.3311 11.001 -31.998c-2.66699 -1.33301 -10 -2 -22 -2h-37c0 -106.667 -11.667 -215 -35 -325c-30 -141.333 -74 -251.666 -132 -330.999c29.333 -56.667 44 -110.334 44 -161.001c0 -30 -6.66699 -62.333 -20 -97
c-16 -42 -36.333 -66 -61 -72c-114 -26.667 -236 -35.334 -366 -26.001l42 141c124.667 58 214.667 125 270 201c-126 172 -269 338 -429 498l-25 -42c-88.667 96 -133 155.333 -133 178c0 23.333 8 67.333 24 132c4 16.667 8.33301 25 13 25s18 -10 40 -30
c248 -227.333 435.333 -456 562 -686c48 81.333 77.333 191.666 88 330.999c9.33301 120.667 8.66602 248.667 -2.00098 384l108 100c23.333 -77.333 43.333 -139.333 60 -186zM736 129.003c0.666992 6 0.999023 11.999 0.999023 17.999c0 36 -12 71 -36 105
c-42.667 -51.333 -95 -100.666 -157 -147.999c16 -1.33301 31.333 -2 46 -2c60.667 0 109.334 9 146.001 27z" />
    <glyph glyph-name="uFEFC" unicode="&#xfee0;&#xfe8e;" horiz-adv-x="1170" arabic-form="final" 
d="M1196 1l-76.002 -0.00195312c-159.333 0 -239 113 -239 339c0 24.667 1 63 3 115c-98 -243.333 -221.667 -417.333 -371 -522c-94 -22 -206.333 -34.333 -337 -37c-28 -0.666992 -42 1.33301 -42 6c0 5.33301 40 27.333 120 66l151 71
c89.333 44.667 173.666 108.334 252.999 191.001c-33.333 128 -90.666 242 -171.999 342c-52 64 -132.667 140.333 -242 229l-15 -51c-34.667 29.333 -64 56 -88 80c-41.333 41.333 -62.333 70.333 -63 87c-1.33301 22.667 2.66699 65.667 12 129c2 14.667 5 22 9 22
s14 -5.66699 30 -17c168 -120 293 -231 375 -333c100.667 -125.333 168.667 -271.333 204 -438c47.333 60.667 86.333 129.667 117 207c33.333 84.667 49 162 47 232c-3.33301 118.667 -11.666 247.334 -24.999 386.001l108 93c10.667 -62.667 18.334 -354.667 23.001 -876
c0.666992 -115.333 51.667 -173 153 -173h65v-148z" />
    <glyph glyph-name="u0652_u064E.liga" unicode="&#x652;&#x64e;" horiz-adv-x="1" 
d="M259 929c0 -16 -5 -30.333 -15 -43c-6 -7.33301 -10.333 -11.333 -13 -12c-2 1.33301 -3 6.33301 -3 15c0 44.667 -12.333 153 -37 325l50 30c4 2.66699 7 4 9 4c1.33301 -0.666992 2.33301 -3 3 -7c4 -50 6 -154 6 -312z" />
    <glyph glyph-name="u0652_u064B.liga" unicode="&#x652;&#x64b;" horiz-adv-x="1" 
d="M563 895l-99 -99l-100 100l99 98zM343 895l-98 -99l-100 100l99 98z" />
    <glyph glyph-name="u0652_u064D.liga" unicode="&#x652;&#x64d;" horiz-adv-x="1" 
d="M827 -740l-99 -99l-100 100l99 98zM607 -740l-98 -99l-100 100l99 98z" />
    <glyph glyph-name="u0622" unicode="&#x622;" horiz-adv-x="506" arabic-form="isolated" 
d="M432 159c0 -50.667 -10.998 -98.334 -32.998 -143.001c-12.667 -26 -21.334 -39 -26.001 -39c-5.33301 0 -8 16.333 -8 49c0 148 -26 509.333 -78 1084l106 99c9.33301 8.66699 15.666 13.334 18.999 14.001c3.33301 0 5.33301 -7.33301 6 -22
c9.33301 -162 14 -509.333 14 -1042zM515.002 1371c-55.333 -45.333 -124 -68.001 -206 -68.001c-12 0 -30 1.5 -54 4.5s-42 4.5 -54 4.5c-8 0 -19.5 -9.33301 -34.5 -28s-25.5 -28 -31.5 -28c-11.333 0 -17 8 -17 24c0 10.667 7.33301 32.334 22 65.001c16 36 30 54 42 54
c16.667 0 41.5 -2.83301 74.5 -8.5s57.833 -8.5 74.5 -8.5c73.333 0 128 5 164 15c19.333 5.33301 32 8 38 8c5.33301 0 8 -1.66699 8 -5c0 -5.33301 -8.66699 -15 -26 -29z" />
    <glyph glyph-name="u0623" unicode="&#x623;" horiz-adv-x="427" arabic-form="isolated" 
d="M361 159c0 -52 -10.667 -99.667 -32 -143c-12.667 -26 -21.667 -39 -27 -39s-8 16.333 -8 49c0 148 -25.667 509.333 -77 1084l105 99c10 9.33301 16.667 14 20 14s5.33301 -7.33301 6 -22c8.66699 -150.667 13 -498 13 -1042zM433 1386l-14.999 -63.002
c-93.333 -18 -189.333 -44.667 -288 -80v47c16.667 10 44.667 25.667 84 47c-54 36.667 -81 68 -81 94c0 24.667 17.667 58 53 100c38.667 46 75.667 69 111 69c45.333 0 78.333 -21.333 99 -64c6 -12.667 6.66699 -22 2 -28
c-4.66699 -5.33301 -13.667 -5.66602 -27 -0.999023c-22 8 -49.667 12 -83 12c-15.333 0 -31.333 -4 -48 -12c-20.667 -9.33301 -31 -20.666 -31 -33.999c0 -25.333 17 -46.333 51 -63c28 -14.667 55.667 -22 83 -22c19.333 0 41 3 65 9c2.66699 0.666992 7 1.66699 13 3
c7.33301 2 11.666 2 12.999 0s1 -6.66699 -1 -14z" />
    <glyph glyph-name="u0624" unicode="&#x624;" horiz-adv-x="659" arabic-form="isolated" 
d="M658 52c0 -190.667 -65.667 -354 -197 -490c-41.333 -42.667 -67.666 -64 -78.999 -64c-72.667 0 -155.667 7.33301 -249 22c-32.667 5.33301 -49 10.333 -49 15c0 5.33301 17.333 13 52 23c103.333 30 199.666 83.333 288.999 160c37.333 32 71.333 69.667 102 113
c38.667 54 58 99.333 58 136v42l-167 -6c-118 -4 -177 45 -177 147c0 63.333 18.333 131.333 55 204c42 82.667 90 124 144 124c80 0 139.333 -55 178 -165c26.667 -76 40 -163 40 -261zM566 158c0 41.333 -13.999 80.333 -41.999 117c-30 40 -65 60 -105 60
c-26.667 0 -49.834 -10 -69.501 -30s-29.5 -43.333 -29.5 -70c0 -58.667 42 -88 126 -88c31.333 0 71.333 3.66699 120 11zM532.001 741l-16 -62.9971c-95.333 -18.667 -191 -45.334 -287 -80.001v47c16 10 44 25.667 84 47c-54 35.333 -81 66.666 -81 93.999
c0 24.667 17.667 58 53 100c38.667 46 75.667 69 111 69c45.333 0 78 -21.333 98 -64c6 -12.667 6.66699 -22 2 -28c-4 -6 -13 -6.33301 -27 -1c-23.333 8.66699 -50.666 13 -81.999 13c-14.667 0 -31 -4.33301 -49 -13c-20.667 -10 -31 -21.333 -31 -34
c0 -16.667 11 -34 33 -52c27.333 -22 61.333 -33 102 -33c19.333 0 40.666 3 63.999 9c12 3.33301 19.667 5 23 5c2 -0.666992 3.33301 -1.33398 4 -2.00098c1.33301 -2 1 -6.66699 -1 -14z" />
    <glyph glyph-name="u0625" unicode="&#x625;" horiz-adv-x="427" arabic-form="isolated" 
d="M352 159c0 -53.333 -10.666 -101.001 -31.999 -143.001c-13.333 -26 -22.333 -39 -27 -39c-5.33301 0 -8 16.333 -8 49c0 148 -25.667 509.333 -77 1084l106 99c9.33301 8.66699 15.666 13.334 18.999 14.001c3.33301 0 5.33301 -7.33301 6 -22
c8.66699 -150.667 13 -498 13 -1042zM469.001 -341.001l-16 -62c-96 -19.333 -191.667 -46.333 -287 -81v47c16 10 43.667 26 83 48c-54 36.667 -81 67.667 -81 93s17.667 58.666 53 99.999c39.333 46 76.333 69 111 69c45.333 0 78.333 -21 99 -63
c6 -12.667 6.66699 -22 2 -28c-4.66699 -5.33301 -13.667 -5.66602 -27 -0.999023c-22 8 -49.667 12 -83 12c-14.667 0 -30.667 -4.33301 -48 -13c-20.667 -10 -31 -21.333 -31 -34c0 -16 11 -33 33 -51c27.333 -22 61 -33 101 -33c22 0 43.667 3 65 9
c14 4 22.333 5.33301 25 4c2.66699 -2 3 -7.33301 1 -16z" />
    <glyph glyph-name="u0626" unicode="&#x626;" horiz-adv-x="1326" arabic-form="isolated" 
d="M1319 469c5.33301 -24 6.33496 -37.668 3.00195 -41.001c-2.66699 -3.33301 -13.334 0.333984 -32.001 11.001c-39.333 22 -89.333 33 -150 33c-84 0 -162 -35.667 -234 -107c-59.333 -59.333 -89 -106.333 -89 -141c0 -41.333 59.333 -72.666 178 -93.999
c130 -24 206 -55.333 228 -94c4.66699 -8 7 -21 7 -39c0 -70 -22.333 -140.667 -67 -212c-29.333 -47.333 -93.333 -90.666 -192 -129.999c-122 -48.667 -261.667 -73 -419 -73c-110.667 0 -202.667 28.333 -276 85c-80.667 62.667 -121 147.667 -121 255
c0 119.333 39 230.333 117 333c12 15.333 23.667 24.666 35 27.999c10.667 2.66699 16 -1.33301 16 -12c0 -8 -3.66699 -18.667 -11 -32c-50 -92 -75 -177.667 -75 -257c0 -58 21.667 -110.333 65 -157c59.333 -63.333 147.333 -95 264 -95c104 0 213.667 13 329 39
c166.667 37.333 250 89.666 250 156.999c0 25.333 -81.667 53.666 -245 84.999c-60.667 12 -102 24.333 -124 37c-31.333 18.667 -47 50.334 -47 95.001c0 83.333 43.333 181 130 293c93.333 120.667 185.666 181 276.999 181c99.333 0 160.333 -49.333 183 -148z
M486.002 513.999l-16.001 -63.002c-93.333 -18 -189 -44.667 -287 -80v47c29.333 18 57.333 33.667 84 47c-54 36.667 -81 67.667 -81 93s17.667 59 53 101c38.667 46 75.667 69 111 69c44 0 76.667 -21.333 98 -64c6 -12.667 7 -22 3 -28
c-4.66699 -5.33301 -13.667 -5.66602 -27 -0.999023c-22 8 -49.667 12 -83 12c-15.333 0 -31.333 -4 -48 -12c-20.667 -9.33301 -31 -20.666 -31 -33.999c0 -25.333 17 -46.333 51 -63c28 -14.667 55.667 -22 83 -22c21.333 0 43 3 65 9l11 3
c4 0.666992 7.33301 1.33398 10 2.00098c2.66699 -0.666992 4.33398 -1.33398 5.00098 -2.00098c1.33301 -2 1 -6.66699 -1 -14z" />
    <glyph glyph-name="u0627" unicode="&#x627;" horiz-adv-x="301" arabic-form="isolated" 
d="M299 159c0 -52 -10.665 -99.668 -31.998 -143.001c-12.667 -26 -21.334 -39 -26.001 -39c-5.33301 0 -8 16.333 -8 49c0 148 -26 509.333 -78 1084l106 99c9.33301 8.66699 15.666 13.334 18.999 14.001c3.33301 0 5.33301 -7.33301 6 -22
c8.66699 -168.667 13 -516 13 -1042zM299.002 158.999c0 -52 -10.665 -99.668 -31.998 -143.001c-12.667 -26 -21.334 -39 -26.001 -39c-5.33301 0 -8 16.333 -8 49c0 148 -26 509.333 -78 1084l106 99c9.33301 8.66699 15.666 13.334 18.999 14.001
c3.33301 0 5.33301 -7.33301 6 -22c8.66699 -168.667 13 -516 13 -1042z" />
    <glyph glyph-name="u0628" unicode="&#x628;" horiz-adv-x="1387" arabic-form="isolated" 
d="M1386 288c0 -94.667 -31.665 -162 -94.998 -202c-42.667 -26.667 -119.667 -50 -231 -70c-122.667 -22 -255.334 -33 -398.001 -33c-338 0 -507 92.667 -507 278c0 62 23.667 127 71 195c9.33301 13.333 18.666 20 27.999 20s14 -6 14 -18c0 -6 -1.66699 -13 -5 -21
c-18.667 -42.667 -28 -81 -28 -115c0 -126 161 -189 483 -189c156.667 0 290.667 9.33301 402 28c123.333 20.667 185 48.667 185 84c0 21.333 -29.333 71.333 -88 150l63 121c7.33301 14 15.333 14 24 0c54.667 -86.667 82 -162.667 82 -228zM881.002 -290l-104 -104
l-105 105l104 104z" />
    <glyph glyph-name="u0629" unicode="&#x629;" horiz-adv-x="641" arabic-form="isolated" 
d="M640 270c0 -87.333 -27 -155.334 -81 -204.001c-52 -46 -122 -69 -210 -69c-54 0 -99.333 16.333 -136 49c-38.667 34 -58 77.667 -58 131c0 59.333 25.333 133 76 221c44 76 92.667 140.667 146 194c175.333 -91.333 263 -198.666 263 -321.999zM567 217.999
c0 35.333 -28.333 79.668 -85 133.001c-50.667 47.333 -95.667 78.333 -135 93c-66.667 -84.667 -100 -152.334 -100 -203.001c0 -30 15.667 -54.333 47 -73c26.667 -16 56 -24 88 -24c55.333 0 102 10.333 140 31c30 16 45 30.333 45 43zM521 826.001l-15.999 -62.999
c-94 -18 -189.667 -44.667 -287 -80v47c16 10 43.667 26 83 48c-54 34.667 -81 65.667 -81 93c0 25.333 17.667 58.666 53 99.999c39.333 46 76.333 69 111 69c45.333 0 78.333 -21 99 -63c6 -12.667 6.66699 -22 2 -28s-13.667 -6.33301 -27 -1
c-20.667 8 -48.334 12 -83.001 12c-14.667 0 -30.667 -4.33301 -48 -13c-20.667 -10 -31 -21.333 -31 -34c0 -25.333 17 -46.333 51 -63c28 -14.667 55.667 -22 83 -22c22 0 45.333 3.33301 70 10c12 3.33301 19 4.33301 21 3s2 -6.33301 0 -15z" />
    <glyph glyph-name="u062A" unicode="&#x62a;" horiz-adv-x="1387" arabic-form="isolated" 
d="M1386 288c0 -94.667 -31.665 -162 -94.998 -202c-42.667 -26.667 -119.667 -50 -231 -70c-122.667 -22 -255.334 -33 -398.001 -33c-338 0 -507 92.667 -507 278c0 62 23.667 127 71 195c9.33301 13.333 18.666 20 27.999 20s14 -6 14 -18c0 -6 -1.66699 -13 -5 -21
c-18.667 -42.667 -28 -81 -28 -115c0 -126 161 -189 483 -189c156.667 0 290.667 9.33301 402 28c123.333 20.667 185 48.667 185 84c0 21.333 -29.333 71.333 -88 150l63 121c7.33301 14 15.333 14 24 0c54.667 -86.667 82 -162.667 82 -228zM961.002 744l-99 -98l-99 99
l98 99zM742.002 744l-99 -98l-100 99l99 99z" />
    <glyph glyph-name="u062B" unicode="&#x62b;" horiz-adv-x="1387" arabic-form="isolated" 
d="M1386 288c0 -94.667 -31.665 -162 -94.998 -202c-42.667 -26.667 -119.667 -50 -231 -70c-122.667 -22 -255.334 -33 -398.001 -33c-338 0 -507 92.667 -507 278c0 62 23.667 127 71 195c9.33301 13.333 18.666 20 27.999 20s14 -6 14 -18c0 -6 -1.66699 -13 -5 -21
c-18.667 -42.667 -28 -81 -28 -115c0 -126 161 -189 483 -189c156.667 0 290.667 9.33301 402 28c123.333 20.667 185 48.667 185 84c0 21.333 -29.333 71.333 -88 150l63 121c7.33301 14 15.333 14 24 0c54.667 -86.667 82 -162.667 82 -228zM869.002 842l-94 -93l-94 94
l93 93zM984.002 642l-94 -93l-95 94l94 93zM756.002 642l-94 -93l-95 94l95 93z" />
    <glyph glyph-name="u062C" unicode="&#x62c;" horiz-adv-x="1061" arabic-form="isolated" 
d="M1096 -423c-64 -58 -130.999 -97.667 -200.999 -119c-60.667 -18.667 -138.667 -28 -234 -28c-184.667 0 -320.334 44.333 -407.001 133c-66 67.333 -99 152.666 -99 255.999c0 248 162.667 436.333 488 565c-136.667 23.333 -234.667 35 -294 35
c-29.333 0 -69 -17.167 -119 -51.5s-71 -51.5 -63 -51.5c-10 0 -13.667 10.667 -11 32c4.66699 38.667 20 77.334 46 116.001c43.333 64.667 103 97 179 97c61.333 0 152.666 -10.667 273.999 -32s213 -32 275 -32h94c24 0 36 -3 36 -9c0 -4 -2.66699 -13.667 -8 -29
l-35 -99c-60 -1.33301 -131.333 -9.33301 -214 -24c-130.667 -23.333 -250.667 -70.666 -360 -141.999c-136 -89.333 -204 -191 -204 -305c0 -112.667 56.333 -197.334 169 -254.001c88.667 -44.667 194.667 -67 318 -67c132.667 0 249.334 13.667 350.001 41
c10 2.66699 18.333 4 25 4c10 0 15 -2.66699 15 -8c0 -6.66699 -6.66699 -16 -20 -28zM770.001 -80l-104 -104l-105 105l104 104z" />
    <glyph glyph-name="u062D" unicode="&#x62d;" horiz-adv-x="1061" arabic-form="isolated" 
d="M1096 -423c-64 -58 -130.999 -97.667 -200.999 -119c-60.667 -18.667 -138.667 -28 -234 -28c-184.667 0 -320.334 44.333 -407.001 133c-66 67.333 -99 152.666 -99 255.999c0 248 162.667 436.333 488 565c-136.667 23.333 -234.667 35 -294 35
c-29.333 0 -69 -17.167 -119 -51.5s-71 -51.5 -63 -51.5c-10 0 -13.667 10.667 -11 32c4.66699 38.667 20 77.334 46 116.001c43.333 64.667 103 97 179 97c61.333 0 152.666 -10.667 273.999 -32s213 -32 275 -32h94c24 0 36 -3 36 -9c0 -4 -2.66699 -13.667 -8 -29
l-35 -99c-60 -1.33301 -131.333 -9.33301 -214 -24c-130.667 -23.333 -250.667 -70.666 -360 -141.999c-136 -89.333 -204 -191 -204 -305c0 -112.667 56.333 -197.334 169 -254.001c88.667 -44.667 194.667 -67 318 -67c132.667 0 249.334 13.667 350.001 41
c10 2.66699 18.333 4 25 4c10 0 15 -2.66699 15 -8c0 -6.66699 -6.66699 -16 -20 -28z" />
    <glyph glyph-name="u062E" unicode="&#x62e;" horiz-adv-x="1061" arabic-form="isolated" 
d="M1096 -423c-64 -58 -130.999 -97.667 -200.999 -119c-60.667 -18.667 -138.667 -28 -234 -28c-184.667 0 -320.334 44.333 -407.001 133c-66 67.333 -99 152.666 -99 255.999c0 248 162.667 436.333 488 565c-136.667 23.333 -234.667 35 -294 35
c-29.333 0 -69 -17.167 -119 -51.5s-71 -51.5 -63 -51.5c-10 0 -13.667 10.667 -11 32c4.66699 38.667 20 77.334 46 116.001c43.333 64.667 103 97 179 97c61.333 0 152.666 -10.667 273.999 -32s213 -32 275 -32h94c24 0 36 -3 36 -9c0 -4 -2.66699 -13.667 -8 -29
l-35 -99c-60 -1.33301 -131.333 -9.33301 -214 -24c-130.667 -23.333 -250.667 -70.666 -360 -141.999c-136 -89.333 -204 -191 -204 -305c0 -112.667 56.333 -197.334 169 -254.001c88.667 -44.667 194.667 -67 318 -67c132.667 0 249.334 13.667 350.001 41
c10 2.66699 18.333 4 25 4c10 0 15 -2.66699 15 -8c0 -6.66699 -6.66699 -16 -20 -28zM733.001 903l-104 -104l-105 105l104 104z" />
    <glyph glyph-name="u062F" unicode="&#x62f;" horiz-adv-x="782" arabic-form="isolated" 
d="M780 268c0 -178 -117.999 -267.001 -353.999 -267.001c-88 0 -152.333 12 -193 36c-52.667 30.667 -79 86.334 -79 167.001c0 38 10.333 76.667 31 116c9.33301 18 18 27 26 27c10 0 13.667 -11 11 -33c-2 -16 -3 -29.333 -3 -40c0 -53.333 24 -89.333 72 -108
c29.333 -11.333 76.666 -17 141.999 -17c186.667 0 280 29 280 87c0 91.333 -109 216 -327 374l38 130c4 12.667 7.66699 19 11 19c4 0 12.333 -5 25 -15c213.333 -171.333 320 -330 320 -476z" />
    <glyph glyph-name="u0630" unicode="&#x630;" horiz-adv-x="782" arabic-form="isolated" 
d="M780 268c0 -178 -117.999 -267.001 -353.999 -267.001c-88 0 -152.333 12 -193 36c-52.667 30.667 -79 86.334 -79 167.001c0 38 10.333 76.667 31 116c9.33301 18 18 27 26 27c10 0 13.667 -11 11 -33c-2 -16 -3 -29.333 -3 -40c0 -53.333 24 -89.333 72 -108
c29.333 -11.333 76.666 -17 141.999 -17c186.667 0 280 29 280 87c0 91.333 -109 216 -327 374l38 130c4 12.667 7.66699 19 11 19c4 0 12.333 -5 25 -15c213.333 -171.333 320 -330 320 -476zM536.001 1051l-104 -104l-105 105l104 104z" />
    <glyph glyph-name="u0631" unicode="&#x631;" horiz-adv-x="647" arabic-form="isolated" 
d="M645 -11c0 -124.667 -39.668 -242.335 -119.001 -353.002c-68 -94.667 -124.667 -142 -170 -142c-97.333 0 -181.333 5 -252 15c-23.333 3.33301 -35 9 -35 17s12 14.333 36 19c100 20.667 200.667 73.667 302 159c108 91.333 162 179 162 263
c0 56 -44.667 127.333 -134 214l58 121c5.33301 10.667 9.33301 16.334 12 17.001c4 -1.33301 9.66699 -6.66602 17 -15.999c30.667 -37.333 58.334 -87 83.001 -149c26.667 -65.333 40 -120.333 40 -165z" />
    <glyph glyph-name="u0632" unicode="&#x632;" horiz-adv-x="647" arabic-form="isolated" 
d="M645 -11c0 -124.667 -39.668 -242.335 -119.001 -353.002c-68 -94.667 -124.667 -142 -170 -142c-97.333 0 -181.333 5 -252 15c-23.333 3.33301 -35 9 -35 17s12 14.333 36 19c100 20.667 200.667 73.667 302 159c108 91.333 162 179 162 263
c0 56 -44.667 127.333 -134 214l58 121c5.33301 10.667 9.33301 16.334 12 17.001c4 -1.33301 9.66699 -6.66602 17 -15.999c30.667 -37.333 58.334 -87 83.001 -149c26.667 -65.333 40 -120.333 40 -165zM550.999 675.999l-104 -104l-104 105l104 103z" />
    <glyph glyph-name="u0633" unicode="&#x633;" horiz-adv-x="1776" arabic-form="isolated" 
d="M1775 269c0 -180.667 -75.999 -270.998 -227.999 -270.998c-84 0 -141.333 37.333 -172 112c-42 -76.667 -103 -115 -183 -115c-29.333 0 -61 5.33301 -95 16c-2.66699 -76.667 -7.33398 -158 -14.001 -244c-34 -95.333 -107.333 -169 -220 -221
c-96.667 -44.667 -201.334 -67 -314.001 -67c-112 0 -204 27.667 -276 83c-78.667 61.333 -118 146.666 -118 255.999c0 58 14.333 120 43 186c20.667 47.333 42 84.333 64 111c10.667 12.667 20.334 19 29.001 19c8 0 12 -4.66699 12 -14c0 -6 -2 -13 -6 -21
c-38 -78 -57 -149.333 -57 -214c0 -63.333 21 -118 63 -164c55.333 -60.667 139 -91 251 -91c126.667 0 237 22.667 331 68c77.333 37.333 126 78 146 122c6.66699 14.667 7.66699 43 3 85c-4.66699 42.667 -11 74.334 -19 95.001c-15.333 40 -56.666 103.333 -123.999 190
l56 106c8 15.333 14 23 18 23c3.33301 0 9.33301 -6.33301 18 -19c35.333 -53.333 59.666 -86.333 72.999 -99c36 -35.333 79.333 -53 130 -53c56.667 0 97.667 15.333 123 46c16.667 20.667 30 57 40 109c4.66699 25.333 12.667 38 24 38c10 0 16.333 -11.333 19 -34
c8 -62 26.667 -104.667 56 -128s76 -35 140 -35c26.667 0 49.667 7 69 21c22 15.333 33 35.666 33 60.999c0 36.667 -24.667 82.667 -74 138l65 111c6.66699 11.333 11.667 17.333 15 18c4 -2 9.33301 -8 16 -18c42 -64.667 63 -133.334 63 -206.001z" />
    <glyph glyph-name="u0634" unicode="&#x634;" horiz-adv-x="1776" arabic-form="isolated" 
d="M1775 269c0 -180.667 -75.999 -270.998 -227.999 -270.998c-84 0 -141.333 37.333 -172 112c-42 -76.667 -103 -115 -183 -115c-29.333 0 -61 5.33301 -95 16c-2.66699 -76.667 -7.33398 -158 -14.001 -244c-34 -95.333 -107.333 -169 -220 -221
c-96.667 -44.667 -201.334 -67 -314.001 -67c-112 0 -204 27.667 -276 83c-78.667 61.333 -118 146.666 -118 255.999c0 58 14.333 120 43 186c20.667 47.333 42 84.333 64 111c10.667 12.667 20.334 19 29.001 19c8 0 12 -4.66699 12 -14c0 -6 -2 -13 -6 -21
c-38 -78 -57 -149.333 -57 -214c0 -63.333 21 -118 63 -164c55.333 -60.667 139 -91 251 -91c126.667 0 237 22.667 331 68c77.333 37.333 126 78 146 122c6.66699 14.667 7.66699 43 3 85c-4.66699 42.667 -11 74.334 -19 95.001c-15.333 40 -56.666 103.333 -123.999 190
l56 106c8 15.333 14 23 18 23c3.33301 0 9.33301 -6.33301 18 -19c35.333 -53.333 59.666 -86.333 72.999 -99c36 -35.333 79.333 -53 130 -53c56.667 0 97.667 15.333 123 46c16.667 20.667 30 57 40 109c4.66699 25.333 12.667 38 24 38c10 0 16.333 -11.333 19 -34
c8 -62 26.667 -104.667 56 -128s76 -35 140 -35c26.667 0 49.667 7 69 21c22 15.333 33 35.666 33 60.999c0 36.667 -24.667 82.667 -74 138l65 111c6.66699 11.333 11.667 17.333 15 18c4 -2 9.33301 -8 16 -18c42 -64.667 63 -133.334 63 -206.001zM1464 941.002l-93 -94
l-95 95l94 93zM1579 741.002l-94 -94l-94 95l93 93zM1351 741.002l-93 -94l-95 95l94 93z" />
    <glyph glyph-name="u0635" unicode="&#x635;" horiz-adv-x="1884" arabic-form="isolated" 
d="M1882 333c0 -123.333 -69.334 -214.33 -208.001 -272.997c-102 -43.333 -224 -65 -366 -65c-80.667 0 -151 9.66699 -211 29c-2.66699 -80.667 -7.33398 -166.334 -14.001 -257.001c-34 -95.333 -107.333 -169 -220 -221c-96.667 -44.667 -201.334 -67 -314.001 -67
c-112 0 -204 27.667 -276 83c-78.667 61.333 -118 146.666 -118 255.999c0 58 14.333 120 43 186c20.667 47.333 42 84.333 64 111c10.667 12.667 20.334 19 29.001 19c8 0 12 -4.66699 12 -14c0 -6 -2 -13 -6 -21c-38 -78 -57 -149.333 -57 -214c0 -63.333 21 -118 63 -164
c55.333 -60.667 139 -91 251 -91c126.667 0 237 22.667 331 68c77.333 37.333 126 78 146 122c6.66699 14.667 8.33398 41.667 5.00098 81c-3.33301 38.667 -10.333 71.667 -21 99c-16.667 42.667 -58 106 -124 190l56 106c8 15.333 14.333 23 19 23
c4 0 9.66699 -6.33301 17 -19c34 -58.667 77.333 -105.334 130 -140.001c226.667 247.333 412.334 371 557.001 371c59.333 0 109 -18 149 -54c42 -38 63 -86 63 -144zM1789 259.003c0 38 -21.333 70.333 -64 97c-37.333 23.333 -76 35 -116 35
c-118.667 0 -257 -81 -415 -243c36 -2 72.667 -3 110 -3c86.667 0 175.667 6.33301 267 19c145.333 20 218 51.667 218 95z" />
    <glyph glyph-name="u0636" unicode="&#x636;" horiz-adv-x="1884" arabic-form="isolated" 
d="M1882 333c0 -123.333 -69.334 -214.33 -208.001 -272.997c-102 -43.333 -224 -65 -366 -65c-80.667 0 -151 9.66699 -211 29c-2.66699 -80.667 -7.33398 -166.334 -14.001 -257.001c-34 -95.333 -107.333 -169 -220 -221c-96.667 -44.667 -201.334 -67 -314.001 -67
c-112 0 -204 27.667 -276 83c-78.667 61.333 -118 146.666 -118 255.999c0 58 14.333 120 43 186c20.667 47.333 42 84.333 64 111c10.667 12.667 20.334 19 29.001 19c8 0 12 -4.66699 12 -14c0 -6 -2 -13 -6 -21c-38 -78 -57 -149.333 -57 -214c0 -63.333 21 -118 63 -164
c55.333 -60.667 139 -91 251 -91c126.667 0 237 22.667 331 68c77.333 37.333 126 78 146 122c6.66699 14.667 8.33398 41.667 5.00098 81c-3.33301 38.667 -10.333 71.667 -21 99c-16.667 42.667 -58 106 -124 190l56 106c8 15.333 14.333 23 19 23
c4 0 9.66699 -6.33301 17 -19c34 -58.667 77.333 -105.334 130 -140.001c226.667 247.333 412.334 371 557.001 371c59.333 0 109 -18 149 -54c42 -38 63 -86 63 -144zM1789 259.003c0 38 -21.333 70.333 -64 97c-37.333 23.333 -76 35 -116 35
c-118.667 0 -257 -81 -415 -243c36 -2 72.667 -3 110 -3c86.667 0 175.667 6.33301 267 19c145.333 20 218 51.667 218 95zM1600 896.003l-104 -104l-105 105l104 104z" />
    <glyph glyph-name="u0637" unicode="&#x637;" horiz-adv-x="1329" arabic-form="isolated" 
d="M1327 348c0 -145.333 -87.3311 -244 -261.998 -296c-112 -33.333 -281.333 -50 -508 -50c-95.333 0 -163.333 5.33301 -204 16c-88.667 23.333 -150.667 75.333 -186 156c-6 13.333 -9 22 -9 26c0 3.33301 1.66699 5 5 5c4 0 13 -3.33301 27 -10
c62 -29.333 143.333 -44 244 -44c37.333 0 62.666 6.33301 75.999 19s19.666 37.334 18.999 74.001c-0.666992 54.667 -2.66699 151.667 -6 291c-7.33301 213.333 -22.333 402.333 -45 567l91 92c8.66699 8.66699 14.334 13.334 17.001 14.001
c3.33301 0 7.66602 -9.66699 12.999 -29c12.667 -48 31 -100.333 55 -157c6 -14.667 8.33301 -23.334 7 -26.001c-3.33301 -1.33301 -10 -2 -20 -2h-40c12.667 -230 19 -366.333 19 -409v-138c0 -50.667 -11.667 -123.334 -35 -218.001c8 0 40.333 26.667 97 80
c70 66 131.333 115.667 184 149c84.667 53.333 163.667 80 237 80c64 0 116 -15.333 156 -46c45.333 -34 68 -82 68 -144zM1238 265c0 41.333 -24.332 76.333 -72.999 105c-42 24.667 -85 37 -129 37c-94 0 -240.333 -82.667 -439 -248c55.333 -6 111.666 -9 168.999 -9
c75.333 0 162 7.66699 260 23c141.333 22 212 52.667 212 92z" />
    <glyph glyph-name="u0638" unicode="&#x638;" horiz-adv-x="1329" arabic-form="isolated" 
d="M1327 348c0 -145.333 -87.3311 -244 -261.998 -296c-112 -33.333 -281.333 -50 -508 -50c-95.333 0 -163.333 5.33301 -204 16c-88.667 23.333 -150.667 75.333 -186 156c-6 13.333 -9 22 -9 26c0 3.33301 1.66699 5 5 5c4 0 13 -3.33301 27 -10
c62 -29.333 143.333 -44 244 -44c37.333 0 62.666 6.33301 75.999 19s19.666 37.334 18.999 74.001c-0.666992 54.667 -2.66699 151.667 -6 291c-7.33301 213.333 -22.333 402.333 -45 567l91 92c8.66699 8.66699 14.334 13.334 17.001 14.001
c3.33301 0 7.66602 -9.66699 12.999 -29c12.667 -48 31 -100.333 55 -157c6 -14.667 8.33301 -23.334 7 -26.001c-3.33301 -1.33301 -10 -2 -20 -2h-40c12.667 -230 19 -366.333 19 -409v-138c0 -50.667 -11.667 -123.334 -35 -218.001c8 0 40.333 26.667 97 80
c70 66 131.333 115.667 184 149c84.667 53.333 163.667 80 237 80c64 0 116 -15.333 156 -46c45.333 -34 68 -82 68 -144zM1238 265c0 41.333 -24.332 76.333 -72.999 105c-42 24.667 -85 37 -129 37c-94 0 -240.333 -82.667 -439 -248c55.333 -6 111.666 -9 168.999 -9
c75.333 0 162 7.66699 260 23c141.333 22 212 52.667 212 92zM1142 896l-104 -104l-105 105l104 104z" />
    <glyph glyph-name="u0639" unicode="&#x639;" horiz-adv-x="920" arabic-form="isolated" 
d="M1020 -436c-84 -88 -219.664 -132.002 -406.997 -132.002c-128 0 -233.333 29 -316 87c-94.667 66 -142 160.333 -142 283c0 184.667 98 333.334 294 446.001c-105.333 45.333 -158 109.333 -158 192c0 66.667 31 135.334 93 206.001c66 74.667 135.333 112 208 112
c82 0 146.333 -38.667 193 -116c10.667 -17.333 16 -29.333 16 -36c0 -4.66699 -3 -7 -9 -7c-6.66699 0 -18.334 3 -35.001 9c-30.667 11.333 -83.334 17 -158.001 17c-36 0 -79.667 -11 -131 -33c-59.333 -25.333 -89 -53.666 -89 -84.999
c0 -38.667 28 -76.334 84 -113.001c52 -34 98.667 -51 140 -51c31.333 0 121.666 24.333 270.999 73c19.333 6 31 9.33301 35 10c3.33301 0 5 -2 5 -6c0 -4.66699 -2.66699 -15 -8 -31l-37 -112c-418.667 -89.333 -628 -224 -628 -404c0 -110 56.667 -190.667 170 -242
c82.667 -37.333 187 -56 313 -56c118 0 210.333 10.333 277 31c26 8 42.333 12 49 12c5.33301 0 8 -1.66699 8 -5c0 -6 -12.667 -22.333 -38 -49z" />
    <glyph glyph-name="u063A" unicode="&#x63a;" horiz-adv-x="920" arabic-form="isolated" 
d="M1020 -436c-84 -88 -219.664 -132.002 -406.997 -132.002c-128 0 -233.333 29 -316 87c-94.667 66 -142 160.333 -142 283c0 184.667 98 333.334 294 446.001c-105.333 45.333 -158 109.333 -158 192c0 66.667 31 135.334 93 206.001c66 74.667 135.333 112 208 112
c82 0 146.333 -38.667 193 -116c10.667 -17.333 16 -29.333 16 -36c0 -4.66699 -3 -7 -9 -7c-6.66699 0 -18.334 3 -35.001 9c-30.667 11.333 -83.334 17 -158.001 17c-36 0 -79.667 -11 -131 -33c-59.333 -25.333 -89 -53.666 -89 -84.999
c0 -38.667 28 -76.334 84 -113.001c52 -34 98.667 -51 140 -51c31.333 0 121.666 24.333 270.999 73c19.333 6 31 9.33301 35 10c3.33301 0 5 -2 5 -6c0 -4.66699 -2.66699 -15 -8 -31l-37 -112c-418.667 -89.333 -628 -224 -628 -404c0 -110 56.667 -190.667 170 -242
c82.667 -37.333 187 -56 313 -56c118 0 210.333 10.333 277 31c26 8 42.333 12 49 12c5.33301 0 8 -1.66699 8 -5c0 -6 -12.667 -22.333 -38 -49zM675.003 1086l-104 -104l-105 105l104 104z" />
    <glyph glyph-name="u0641" unicode="&#x641;" horiz-adv-x="1379" arabic-form="isolated" 
d="M1377 363l-0.000976562 -23c0 -90 -14 -156.333 -42 -199c-68.667 -105.333 -305.667 -158 -711 -158c-311.333 0 -467.666 87.333 -468.999 262c-0.666992 84.667 22.666 162 69.999 232c10 14.667 19.333 22 28 22c6.66699 0 10.334 -6.33301 11.001 -19
c-2 -6.66699 -9.66699 -35 -23 -85c-5.33301 -20.667 -8 -42.667 -8 -66c0 -88 60 -146.667 180 -176c60 -14.667 154 -22 282 -22c368 0 572 37.333 612 112c6 11.333 9.33301 27 10 47c0.666992 16.667 -1 30.334 -5 41.001c-66.667 -11.333 -125.667 -17 -177 -17
c-119.333 0 -179.333 49.667 -180 149c-0.666992 69.333 15.333 136.666 48 201.999c40 79.333 91.333 119 154 119c56.667 0 106 -35.667 148 -107c48 -81.333 72 -186 72 -314zM1279 474c0 40.667 -14 77.666 -42 110.999s-62 50 -102 50c-66 0 -99.667 -32 -101 -96
c-0.666992 -53.333 40.333 -80.666 123 -81.999c34 -0.666992 74.667 5 122 17zM1219 1065l-104 -104l-105 105l104 104z" />
    <glyph glyph-name="u0642" unicode="&#x642;" horiz-adv-x="1157" arabic-form="isolated" 
d="M1154 49c0.666992 -15.333 1.66602 -45.334 2.99902 -90.001c2.66699 -96 -7 -167 -29 -213c-41.333 -86.667 -116 -153 -224 -199c-95.333 -40.667 -198.333 -61 -309 -61c-292 0 -438.667 110.667 -440 332c0 50.667 11 109.667 33 177c18 54 40.333 98.333 67 133
c12.667 16 23.667 24.333 33 25c7.33301 0 11.333 -5.66699 12 -17c0.666992 -10 -2 -21.333 -8 -34c-35.333 -76.667 -53.333 -146.334 -54 -209.001c-0.666992 -84 36.333 -149 111 -195c63.333 -38.667 139.666 -58 228.999 -58c108 0 203.333 12 286 36
c118.667 34.667 191.667 89.334 219 164.001c4.66699 12.667 7.33398 31.667 8.00098 57c0.666992 26.667 -3.66602 67.334 -12.999 122.001c-48 -12.667 -105.667 -19.334 -173 -20.001c-122.667 -1.33301 -184 48.334 -184 149.001c0 67.333 17 134.333 51 201
c41.333 80.667 92 121.334 152 122.001c56 0.666992 106 -31.333 150 -96c52 -76.667 78.667 -185.334 80 -326.001zM1050 163.999c0 40 -15 75.999 -45 107.999s-64.667 48.333 -104 49c-26.667 0.666992 -49.834 -8 -69.501 -26s-29.5 -40 -29.5 -66
c0 -53.333 42 -80.666 126 -81.999c38.667 -0.666992 79.334 5 122.001 17zM1107 764.998l-98 -98l-100 99l99 99zM887.999 764.998l-99 -98l-99 99l98 99z" />
    <glyph glyph-name="u0643" unicode="&#x643;" horiz-adv-x="1622" arabic-form="isolated" 
d="M1665 1185c-3.33301 -22 -20 -70.998 -50 -146.998l-323 -101.5c-143.333 -45.667 -241 -84.167 -293 -115.5c100.667 -100.667 169 -174 205 -220c70 -89.333 108.333 -172.666 115 -249.999c6 -66.667 -2.66699 -128.334 -26 -185.001
c-46.667 -113.333 -180.667 -170 -402 -170h-267c-312.667 0 -469 88.667 -469 266c0 64 20.667 129.667 62 197c10.667 17.333 21 26 31 26c8 0 12 -5.33301 12 -16c0 -6.66699 -1.66699 -14 -5 -22c-18.667 -46 -28 -83 -28 -111c0 -46.667 23 -86.667 69 -120
c66 -48 169.667 -72 311 -72h286c102 0 174 4.33301 216 13c91.333 18.667 137 58.667 137 120c0 92 -69.667 201 -209 327l-19 -28c-13.333 12 -36.333 38.667 -69 80c-34.667 45.333 -52 72.666 -52 81.999c0 23.333 4.66699 55.666 14 96.999
c10.667 46 21.667 75.667 33 89c8 9.33301 96 45.333 264 108c186 69.333 338.333 120.333 457 153z" />
    <glyph glyph-name="u0644" unicode="&#x644;" horiz-adv-x="1102" arabic-form="isolated" 
d="M1094 1008c6 -14 7.99805 -22.001 5.99805 -24.001c-1.33301 -2.66699 -9.33301 -4 -24 -4h-43c26.667 -492.667 35.334 -834.667 26.001 -1026c-14.667 -302 -191 -453 -529 -453c-109.333 0 -196.666 23 -261.999 69c-75.333 52.667 -113 131.667 -113 237
c0 106.667 29.333 201.334 88 284.001c7.33301 10 15 15 23 15c10.667 0 16 -6.33301 16 -19c0 -5.33301 -1.33301 -11.333 -4 -18c-28 -70 -42 -128.667 -42 -176c0 -80.667 29.667 -143 89 -187c52.667 -39.333 120.667 -59 204 -59c123.333 0 229.666 23 318.999 69
c79.333 40.667 119 82.667 119 126c0 554.667 -18.667 970.667 -56 1248l89 82c10.667 10 17.667 15.333 21 16c3.33301 -2 7 -9.66699 11 -23c10.667 -34 31.334 -86.333 62.001 -157z" />
    <glyph glyph-name="u0645" unicode="&#x645;" horiz-adv-x="819" arabic-form="isolated" 
d="M817 254c0 -21.333 -13.332 -55.333 -39.999 -102c-28.667 -49.333 -52 -74 -70 -74c-34.667 0 -86.334 6.5 -155.001 19.5s-120.334 19.5 -155.001 19.5c-68 0 -117 -7 -147 -21c22 -221.333 33 -383 33 -485c0 -45.333 -17 -101 -51 -167
c-7.33301 -14.667 -12.666 -22.334 -15.999 -23.001c-3.33301 0 -5.33301 6.33301 -6 19c-13.333 202 -31.666 408.667 -54.999 620c-2.66699 24 9.66602 55 36.999 93c22 30.667 42 52.334 60 65.001c27.333 19.333 59.333 29 96 29c-9.33301 36 -14 65 -14 87
c0 42 16.333 87 49 135c38 55.333 81.333 83 130 83c58.667 0 124 -35.167 196 -105.5s108 -134.5 108 -192.5zM715.001 211c-17.333 44 -48 87 -92 129c-49.333 46.667 -95 70 -137 70c-58.667 0 -88 -22 -88 -66c0 -24.667 6.66699 -57 20 -97
c85.333 0 184.333 -12 297 -36z" />
    <glyph glyph-name="u0646" unicode="&#x646;" horiz-adv-x="1118" arabic-form="isolated" 
d="M1105 19c7.33301 -44.667 10.998 -81.999 10.998 -111.999c0 -48 -8 -94.667 -24 -140c-33.333 -95.333 -108.333 -169.333 -225 -222c-97.333 -44 -203.333 -66 -318 -66c-112 0 -204 27.667 -276 83c-78.667 61.333 -118 146.666 -118 255.999c0 58 14.333 120 43 186
c20.667 47.333 42 84.333 64 111c10.667 12.667 20.334 19 29.001 19c8 0 12 -4.66699 12 -14c0 -6 -2 -13 -6 -21c-38 -78 -57 -149.333 -57 -214c0 -63.333 21 -118 63 -164c55.333 -60.667 139 -91 251 -91c126.667 0 238.667 22.667 336 68c80 37.333 130 78 150 122
c6.66699 14.667 10 33 10 55c0 34 -8.66699 75.667 -26 125c-14.667 41.333 -54.667 108.333 -120 201l52 104c8 15.333 14 23 18 23s10 -6.33301 18 -19c58.667 -91.333 96.334 -188 113.001 -290zM727.998 573.001l-104 -104l-105 105l104 104z" />
    <glyph glyph-name="u0647" unicode="&#x647;" horiz-adv-x="641" arabic-form="isolated" 
d="M640 270c0 -87.333 -27 -155.334 -81 -204.001c-52 -46 -122 -69 -210 -69c-54 0 -99.333 16.333 -136 49c-38.667 34 -58 77.667 -58 131c0 59.333 25.333 133 76 221c44 76 92.667 140.667 146 194c175.333 -91.333 263 -198.666 263 -321.999zM567 217.999
c0 35.333 -28.333 79.668 -85 133.001c-50.667 47.333 -95.667 78.333 -135 93c-66.667 -84.667 -100 -152.334 -100 -203.001c0 -30 15.667 -54.333 47 -73c26.667 -16 56 -24 88 -24c55.333 0 102 10.333 140 31c30 16 45 30.333 45 43z" />
    <glyph glyph-name="u0648" unicode="&#x648;" horiz-adv-x="659" arabic-form="isolated" 
d="M658 52c0 -190.667 -65.667 -354 -197 -490c-41.333 -42.667 -67.666 -64 -78.999 -64c-72.667 0 -155.667 7.33301 -249 22c-32.667 5.33301 -49 10.333 -49 15c0 5.33301 17.333 13 52 23c103.333 30 199.666 83.333 288.999 160c37.333 32 71.333 69.667 102 113
c38.667 54 58 99.333 58 136v42l-167 -6c-118 -4 -177 45 -177 147c0 63.333 18.333 131.333 55 204c42 82.667 90 124 144 124c80 0 139.333 -55 178 -165c26.667 -76 40 -163 40 -261zM566 158c0 41.333 -13.999 80.333 -41.999 117c-30 40 -65 60 -105 60
c-26.667 0 -49.834 -10 -69.501 -30s-29.5 -43.333 -29.5 -70c0 -58.667 42 -88 126 -88c31.333 0 71.333 3.66699 120 11z" />
    <glyph glyph-name="u0649" unicode="&#x649;" horiz-adv-x="1326" arabic-form="isolated" 
d="M1319 469c5.33301 -24 6.33496 -37.668 3.00195 -41.001c-2.66699 -3.33301 -13.334 0.333984 -32.001 11.001c-39.333 22 -89.333 33 -150 33c-84 0 -162 -35.667 -234 -107c-59.333 -59.333 -89 -106.333 -89 -141c0 -41.333 59.333 -72.666 178 -93.999
c130 -24 206 -55.333 228 -94c4.66699 -8 7 -21 7 -39c0 -70 -22.333 -140.667 -67 -212c-29.333 -47.333 -93.333 -90.666 -192 -129.999c-122 -48.667 -261.667 -73 -419 -73c-110.667 0 -202.667 28.333 -276 85c-80.667 62.667 -121 147.667 -121 255
c0 119.333 39 230.333 117 333c12 15.333 23.667 24.666 35 27.999c10.667 2.66699 16 -1.33301 16 -12c0 -8 -3.66699 -18.667 -11 -32c-50 -92 -75 -177.667 -75 -257c0 -58 21.667 -110.333 65 -157c59.333 -63.333 147.333 -95 264 -95c104 0 213.667 13 329 39
c166.667 37.333 250 89.666 250 156.999c0 25.333 -81.667 53.666 -245 84.999c-60.667 12 -102 24.333 -124 37c-31.333 18.667 -47 50.334 -47 95.001c0 83.333 43.333 181 130 293c93.333 120.667 185.666 181 276.999 181c99.333 0 160.333 -49.333 183 -148z" />
    <glyph glyph-name="u064A" unicode="&#x64a;" horiz-adv-x="1326" arabic-form="isolated" 
d="M1319 469c5.33301 -24 6.33496 -37.668 3.00195 -41.001c-2.66699 -3.33301 -13.334 0.333984 -32.001 11.001c-39.333 22 -89.333 33 -150 33c-84 0 -162 -35.667 -234 -107c-59.333 -59.333 -89 -106.333 -89 -141c0 -41.333 59.333 -72.666 178 -93.999
c130 -24 206 -55.333 228 -94c4.66699 -8 7 -21 7 -39c0 -70 -22.333 -140.667 -67 -212c-29.333 -47.333 -93.333 -90.666 -192 -129.999c-122 -48.667 -261.667 -73 -419 -73c-110.667 0 -202.667 28.333 -276 85c-80.667 62.667 -121 147.667 -121 255
c0 119.333 39 230.333 117 333c12 15.333 23.667 24.666 35 27.999c10.667 2.66699 16 -1.33301 16 -12c0 -8 -3.66699 -18.667 -11 -32c-50 -92 -75 -177.667 -75 -257c0 -58 21.667 -110.333 65 -157c59.333 -63.333 147.333 -95 264 -95c104 0 213.667 13 329 39
c166.667 37.333 250 89.666 250 156.999c0 25.333 -81.667 53.666 -245 84.999c-60.667 12 -102 24.333 -124 37c-31.333 18.667 -47 50.334 -47 95.001c0 83.333 43.333 181 130 293c93.333 120.667 185.666 181 276.999 181c99.333 0 160.333 -49.333 183 -148z" />
    <glyph glyph-name="u067E" unicode="&#x67e;" horiz-adv-x="1387" arabic-form="isolated" 
d="M1386 288c0 -94.667 -31.665 -162 -94.998 -202c-42.667 -26.667 -119.667 -50 -231 -70c-122.667 -22 -255.334 -33 -398.001 -33c-338 0 -507 92.667 -507 278c0 62 23.667 127 71 195c9.33301 13.333 18.666 20 27.999 20s14 -6 14 -18c0 -6 -1.66699 -13 -5 -21
c-18.667 -42.667 -28 -81 -28 -115c0 -126 161 -189 483 -189c156.667 0 290.667 9.33301 402 28c123.333 20.667 185 48.667 185 84c0 21.333 -29.333 71.333 -88 150l63 121c7.33301 14 15.333 14 24 0c54.667 -86.667 82 -162.667 82 -228zM671.002 -451l94 93l94 -94
l-94 -93zM556.002 -251l94 93l94 -94l-93 -93zM784.002 -251l93 93l95 -94l-94 -93z" />
    <glyph glyph-name="u0686" unicode="&#x686;" horiz-adv-x="1061" arabic-form="isolated" 
d="M1096 -423c-64 -58 -130.999 -97.667 -200.999 -119c-60.667 -18.667 -138.667 -28 -234 -28c-184.667 0 -320.334 44.333 -407.001 133c-66 67.333 -99 152.666 -99 255.999c0 248 162.667 436.333 488 565c-136.667 23.333 -234.667 35 -294 35
c-29.333 0 -69 -17.167 -119 -51.5s-71 -51.5 -63 -51.5c-10 0 -13.667 10.667 -11 32c4.66699 38.667 20 77.334 46 116.001c43.333 64.667 103 97 179 97c61.333 0 152.666 -10.667 273.999 -32s213 -32 275 -32h94c24 0 36 -3 36 -9c0 -4 -2.66699 -13.667 -8 -29
l-35 -99c-60 -1.33301 -131.333 -9.33301 -214 -24c-130.667 -23.333 -250.667 -70.666 -360 -141.999c-136 -89.333 -204 -191 -204 -305c0 -112.667 56.333 -197.334 169 -254.001c88.667 -44.667 194.667 -67 318 -67c132.667 0 249.334 13.667 350.001 41
c10 2.66699 18.333 4 25 4c10 0 15 -2.66699 15 -8c0 -6.66699 -6.66699 -16 -20 -28zM573.001 -192l93 93l94 -94l-93 -93zM457.001 8l94 93l95 -94l-94 -93zM685.001 8l94 93l95 -94l-94 -93z" />
    <glyph glyph-name="u0698" unicode="&#x698;" horiz-adv-x="647" arabic-form="isolated" 
d="M645 -11c0 -124.667 -39.668 -242.335 -119.001 -353.002c-68 -94.667 -124.667 -142 -170 -142c-97.333 0 -181.333 5 -252 15c-23.333 3.33301 -35 9 -35 17s12 14.333 36 19c100 20.667 200.667 73.667 302 159c108 91.333 162 179 162 263
c0 56 -44.667 127.333 -134 214l58 121c5.33301 10.667 9.33301 16.334 12 17.001c4 -1.33301 9.66699 -6.66602 17 -15.999c30.667 -37.333 58.334 -87 83.001 -149c26.667 -65.333 40 -120.333 40 -165zM498.999 834.999l-94 -93l-94 94l93 93zM613.999 634.999l-94 -93
l-95 94l94 93zM385.999 634.999l-94 -93l-95 94l95 93z" />
    <glyph glyph-name="u06AF" unicode="&#x6af;" horiz-adv-x="1625" arabic-form="isolated" 
d="M1641 1229l-26 -95l-627 -201l27 92zM1668 1038c-3.33301 -22 -16.666 -68.999 -39.999 -140.999c-154.667 -38.667 -343 -96 -565 -172c158 -150.667 244 -276 258 -376c10 -71.333 1.66699 -135 -25 -191c-28.667 -61.333 -75.334 -104 -140.001 -128
c-60 -22.667 -148.333 -34 -265 -34h-267c-312.667 0 -469 88.667 -469 266c0 64 20.667 129.667 62 197c10.667 17.333 21 26 31 26c8 0 12 -5.33301 12 -16c0 -6.66699 -1.66699 -14 -5 -22c-18.667 -46 -28 -83 -28 -111c0 -46.667 23 -86.667 69 -120
c66 -48 169.667 -72 311 -72h286c102.667 0 176 4.33301 220 13c94.667 18.667 142 58 142 118c0 68 -66.667 166 -200 294l-17 -32c-14 11.333 -37 36.333 -69 75c-34.667 42 -52 68 -52 78c0 43.333 16 82.666 48 117.999c7.33301 8 92.333 39 255 93
c172.667 57.333 322 103 448 137z" />
    <glyph glyph-name="uFB57" unicode="&#x67e;" horiz-adv-x="1511" arabic-form="final" 
d="M1537 1h-53.999c-60 0 -109 13.667 -147 41c-43.333 30.667 -65.333 74.667 -66 132c-142 -131.333 -361 -197 -657 -197c-305.333 0 -458 92.667 -458 278c0 62.667 23.667 127.667 71 195c8.66699 12.667 18 19 28 19c9.33301 0 14 -6 14 -18
c0 -5.33301 -1.66699 -12 -5 -20c-18.667 -42.667 -28 -81 -28 -115c0 -127.333 138.667 -191 416 -191c323.333 0 538 70.333 644 211c21.333 28 37.666 42 48.999 42c8 0 12 -8 12 -24c0 -11.333 -2.33301 -28.333 -7 -51s-7 -39.667 -7 -51c0 -68.667 47 -103 141 -103
h54v-148zM671.001 -451l94 93l94 -94l-94 -93zM556.001 -251l94 93l94 -94l-93 -93zM784.001 -251l93 93l95 -94l-94 -93z" />
    <glyph glyph-name="uFB58" unicode="&#x67e;" horiz-adv-x="460" arabic-form="initial" 
d="M332 255c0 -169.333 -84.332 -254.001 -252.999 -254.001h-105v148h87c127.333 0 191 23 191 69c0 32 -29 85 -87 159l52 126c5.33301 12.667 9.66602 19 12.999 19s10.333 -7.66699 21 -23c54 -79.333 81 -160.666 81 -243.999zM143.001 -451.001l93 93l94 -94l-93 -93z
M27.001 -251.001l95 93l94 -94l-94 -93zM255.001 -251.001l94 93l95 -94l-94 -93z" />
    <glyph glyph-name="uFB59" unicode="&#x67e;" horiz-adv-x="630" arabic-form="medial" 
d="M656 1h-98.002c-118 0 -197 38.667 -237 116c-44 -77.333 -132 -116 -264 -116h-83v148h114c124.667 0 192.667 48.333 204 145c4.66699 38.667 14.334 58 29.001 58s24 -20 28 -60c8.66699 -95.333 73.334 -143 194.001 -143h113v-148zM151.998 -451l93 93l94 -94
l-93 -93zM35.998 -251l94 93l95 -94l-94 -93zM263.998 -251l94 93l95 -94l-94 -93z" />
    <glyph glyph-name="uFB7B" unicode="&#x686;" horiz-adv-x="1145" arabic-form="final" 
d="M1172 1l-123.999 0.00195312c-171.333 0 -257 77 -257 231c0 32 4 66.667 12 104c-134.667 -27.333 -254.667 -75 -360 -143c-136 -88 -204 -189.333 -204 -304c0 -112.667 56.333 -197.334 169 -254.001c88.667 -44.667 194.667 -67 318 -67
c132.667 0 249.334 13.667 350.001 41c10 2.66699 18.333 4 25 4c10 0 15 -2.66699 15 -8c0 -6.66699 -6.66699 -16 -20 -28c-64 -58 -131 -97.667 -201 -119c-60.667 -18.667 -138.667 -28 -234 -28c-184.667 0 -320.334 44.333 -407.001 133
c-66 67.333 -99 152.666 -99 255.999c0 248 162.667 436.333 488 565c-136.667 23.333 -234.667 35 -294 35c-29.333 0 -69 -17.167 -119 -51.5s-71 -51.5 -63 -51.5c-10 0 -13.667 10.667 -11 32c4.66699 38.667 20 77.334 46 116.001c43.333 64.667 103 97 179 97
c61.333 0 152.666 -10.667 273.999 -32s213 -32 275 -32h94c24 0 36 -3 36 -9c0 -4.66699 -2.66699 -14.334 -8 -29.001l-35 -98c-36.667 -2 -90.667 -7 -162 -15c-2.66699 -19.333 -4 -36.333 -4 -51c0 -97.333 67.667 -146 203 -146h118v-148zM484.001 -226.998l94 93
l94 -94l-93 -94zM369.001 -26.998l94 93l95 -94l-94 -94zM597.001 -26.998l94 93l95 -94l-95 -94z" />
    <glyph glyph-name="uFB7C" unicode="&#x686;" horiz-adv-x="1038" arabic-form="initial" 
d="M1025 373l-56.002 -100.003c-95.333 1.33301 -162 -5 -200 -19c-51.333 -19.333 -128.666 -54.666 -231.999 -105.999c-100 -50 -177.333 -84.667 -232 -104c-80.667 -28.667 -160.667 -43 -240 -43h-91v148h96c118.667 0 223 19.667 313 59l298 130
c-47.333 10.667 -123 35.334 -227 74.001c-86 32 -141.667 48 -167 48c-49.333 0 -99.666 -21.667 -150.999 -65c-10 -8.66699 -19 -13 -27 -13c-8.66699 0 -13 5.66699 -13 17c0 4.66699 1.33301 11 4 19c42 123.333 113.667 185 215 185c36 0 85 -14 147 -42
c104 -46.667 181.333 -78.667 232 -96c87.333 -29.333 191.333 -48 312 -56c21.333 -1.33301 32 -4 32 -8c0 -3.33301 -4.33301 -12.666 -13 -27.999zM431.998 -439.003l93 94l94 -95l-93 -93zM315.998 -239.003l94 94l95 -95l-94 -93zM543.998 -239.003l94 94l95 -95
l-94 -93z" />
    <glyph glyph-name="uFB7D" unicode="&#x686;" horiz-adv-x="1119" arabic-form="medial" 
d="M1154 1l-130.003 -0.00292969c-168 0 -252 83.333 -252 250c0 19.333 1 41.333 3 66c-58 -28 -138.667 -74 -242 -138c-97.333 -60.667 -171.666 -102 -222.999 -124c-82.667 -36 -164.334 -54 -245.001 -54h-91v148h96c106.667 0 212.334 26.667 317.001 80l281 146
c-29.333 6 -104 24.667 -224 56c-87.333 22.667 -139.666 34 -156.999 34c-46 0 -96.333 -23.333 -151 -70c-10 -8.66699 -19 -13 -27 -13c-8.66699 0 -13 5.66699 -13 17c0 4.66699 1.33301 11 4 19c42.667 126.667 114.334 190 215.001 190c38 0 87.333 -10.333 148 -31
c92.667 -31.333 169.667 -54 231 -68c83.333 -18.667 186.333 -26.667 309 -24c19.333 0.666992 30.333 -0.666016 33 -3.99902s1 -12.666 -5 -27.999l-43 -111c-80 0.666992 -129.667 -4 -149 -14c0 -57.333 6.66699 -96.666 20 -117.999c25.333 -40.667 82 -61 170 -61
h125v-148zM492.997 -439.003l94 94l94 -95l-93 -93zM377.997 -239.003l94 94l94 -95l-93 -93zM605.997 -239.003l93 94l96 -95l-95 -93z" />
    <glyph glyph-name="uFB8B" unicode="&#x698;" horiz-adv-x="770" arabic-form="final" 
d="M796 1l-53.999 -0.000976562c-46.667 0 -82 8 -106 24c1.33301 -13.333 2 -26.666 2 -39.999c0 -120 -39 -235.667 -117 -347c-67.333 -96 -122.333 -144 -165 -144c-97.333 0 -181.333 5 -252 15c-23.333 3.33301 -35 9 -35 17s12 14.333 36 19
c100 20.667 200.667 73.667 302 159c108 91.333 162 179 162 263c0 56 -44.667 127.333 -134 214l59 120c4.66699 10 8.66699 15.333 12 16c4 -1.33301 9.66699 -7 17 -17c39.333 -52 69.666 -86.667 90.999 -104c40 -31.333 87.333 -47 142 -47h40v-148zM499.001 834.999
l-94 -93l-94 94l93 93zM614.001 634.999l-94 -93l-95 94l94 93zM386.001 634.999l-94 -93l-95 94l95 93z" />
    <glyph glyph-name="uFEDA" unicode="&#x6a9;" horiz-adv-x="1735" arabic-form="final" 
d="M1761 1h-93c-64.667 0 -132 36 -202 108c-37.333 38 -87.333 103.333 -150 196c2 -88 -16.333 -154 -55 -198c-64.667 -74 -190.667 -111 -378 -111h-259c-312.667 0 -469 88.667 -469 266c0 64 20.667 129.667 62 197c10.667 17.333 21 26 31 26c8 0 12 -5.33301 12 -16
c0 -6.66699 -1.66699 -14 -5 -22c-18.667 -46 -28 -83 -28 -111c0 -46.667 23 -86.667 69 -120c66 -48 169.667 -72 311 -72h251c143.333 0 242 9 296 27c63.333 21.333 95 61.666 95 120.999c0 51.333 -29.667 113.333 -89 186c-34.667 42.667 -90.334 100 -167.001 172
c-59.333 56 -89 87 -89 93c0 84.667 14 146.334 42 185.001c6 8.66699 94.667 44.334 266 107.001c178.667 65.333 328 116 448 152c0 -18.667 -12.333 -66.334 -37 -143.001c-140.667 -43.333 -349.667 -116.666 -627 -219.999c123.333 -112.667 269 -278.334 437 -497.001
c60.667 -79.333 110.334 -130 149.001 -152c30 -17.333 72 -26 126 -26h53v-148z" />
    <glyph glyph-name="uFEDB" unicode="&#x6a9;" horiz-adv-x="765" arabic-form="initial" 
d="M819 1185c-3.33301 -22 -19.667 -71 -49 -147l-323 -101c-144.667 -46.667 -242.667 -85.334 -294 -116.001c101.333 -100.667 170 -174 206 -220c68.667 -88 106.667 -171.333 114 -250c6 -63.333 -3.33301 -125 -28 -185c-44.667 -110 -178.667 -165 -402 -165h-69v148
h72c100.667 0 173 4.66699 217 14c92 19.333 138 60.333 138 123c0 85.333 -70 191.333 -210 318l-18 -28c-13.333 10.667 -36.333 37.334 -69 80.001c-35.333 44.667 -53 72 -53 82c0 24 4.66699 56.333 14 97c10.667 45.333 22 75 34 89c8 9.33301 96 45.333 264 108
c188.667 70.667 340.667 121.667 456 153z" />
    <glyph glyph-name="uFEDC" unicode="&#x6a9;" horiz-adv-x="880" arabic-form="medial" 
d="M906 1l-92 0.00195312c-66 0 -133.667 36 -203 108c-34 35.333 -83.667 100.666 -149 195.999c6.66699 -202.667 -107.666 -304 -342.999 -304h-145v148h163c172 0 258 47.667 258 143c0 50.667 -30 112.667 -90 186c-38 46 -93.333 103 -166 171c-60 56 -90 87 -90 93
c0 85.333 14.333 147.333 43 186c6 8.66699 89.667 42.667 251 102c169.333 62.667 322.333 114.667 459 156c0 -18.667 -11 -66 -33 -142c-162 -53.333 -370.667 -128.333 -626 -225c118.667 -104.667 264 -268.667 436 -492c60.667 -78.667 110 -129.334 148 -152.001
c29.333 -17.333 71.666 -26 126.999 -26h52v-148z" />
    <glyph glyph-name="uFB93" unicode="&#x6af;" horiz-adv-x="1735" arabic-form="final" 
d="M1629 1233l-27 -95l-626 -201l26 93zM1762 1h-76c-68 0 -136 30 -204 90c-47.333 42 -103.666 108.667 -168.999 200c2.66699 -116 -41.333 -197.333 -132 -244c-65.333 -34 -162 -51 -290 -51h-267c-312.667 0 -469 88.667 -469 266c0 64 20.667 129.667 62 197
c10.667 17.333 21 26 31 26c8 0 12 -5.33301 12 -16c0 -6.66699 -1.66699 -14 -5 -22c-18.667 -46 -28 -83 -28 -111c0 -46.667 23 -86.667 69 -120c66 -48 169.667 -72 311 -72h251c260.667 0 391 49.333 391 148c0 72.667 -56 161.667 -168 267
c-48 45.333 -104 90.333 -168 135c0 54.667 13.333 95.667 40 123c11.333 11.333 246 86.333 704 225c-2 -16.667 -16 -62.667 -42 -138c-112 -29.333 -301.667 -86.333 -569 -171c138 -143.333 254.333 -270.333 349 -381c58.667 -68.667 103.667 -115 135 -139
c55.333 -42.667 114.666 -64 177.999 -64h54v-148z" />
    <glyph glyph-name="uFB94" unicode="&#x6af;" horiz-adv-x="765" arabic-form="initial" 
d="M769 1229l-26 -95l-627 -201l27 92zM796 1038c-3.33301 -22 -16.667 -68.999 -40 -140.999c-154.667 -38.667 -343 -96 -565 -172c158 -150.667 244 -276 258 -376c9.33301 -70 1.33301 -133 -24 -189c-28 -62 -73.333 -104.667 -136 -128
c-55.333 -20.667 -142 -31 -260 -31h-55v148h44c243.333 0 365 42 365 126c0 68 -66.667 166 -200 294l-17 -32c-14 11.333 -37 36.333 -69 75c-34.667 42 -52 68 -52 78c0 43.333 16 82.666 48 117.999c7.33301 8 92.333 39 255 93c172.667 57.333 322 103 448 137z" />
    <glyph glyph-name="uFB95" unicode="&#x6af;" horiz-adv-x="866" arabic-form="medial" 
d="M761 1233l-26 -95l-627 -201l27 93zM892 1h-74.002c-67.333 0 -135 30 -203 90c-47.333 42 -103.666 108.667 -168.999 200c-11.333 -193.333 -144.666 -290 -399.999 -290h-72v148h52c236.667 0 355 47.667 355 143c0 72.667 -56 161.667 -168 267
c-48 45.333 -104 90.333 -168 135c0 54.667 13.333 95.667 40 123c10.667 10.667 245.334 85.667 704.001 225c-1.33301 -16.667 -15.333 -62.667 -42 -138c-112 -29.333 -301.333 -86.333 -568 -171c133.333 -138.667 249.666 -265.667 348.999 -381
c58 -67.333 103 -113.333 135 -138c56 -43.333 115 -65 177 -65h52v-148z" />
    <glyph glyph-name="uFE94" unicode="&#x6c0;" horiz-adv-x="850" arabic-form="final" 
d="M876 1l-95 0.000976562c-109.333 0 -178.666 68 -207.999 204c-60 -59.333 -94.667 -89 -104 -89h-113c-40 0 -79.667 6 -119 18c-54.667 16.667 -82 40 -82 70c0 96 34 174 102 234c45.333 40 123.666 82 234.999 126l-25 123l86 97
c3.33301 -10.667 32.333 -150.334 87 -419.001c16.667 -82 32 -135.333 46 -160c21.333 -37.333 55 -56 101 -56h89v-148zM557 262.001l-43 203c-43.333 -12.667 -95 -33.667 -155 -63c-82 -40 -123 -71.667 -123 -95c0 -19.333 31.333 -34.333 94 -45
c44 -7.33301 83 -11 117 -11c42 0 78.667 3.66699 110 11zM591 966.001l-15.999 -62.999c-94 -18 -189.667 -44.667 -287 -80v47c16 10 43.667 26 83 48c-54 34.667 -81 65.667 -81 93c0 25.333 17.667 58.666 53 99.999c39.333 46 76.333 69 111 69c46 0 79 -21 99 -63
c6 -12.667 6.66699 -22 2 -28s-13.667 -6.33301 -27 -1c-20.667 8 -48.334 12 -83.001 12c-14.667 0 -30.667 -4.33301 -48 -13c-20.667 -10 -31 -21.333 -31 -34c0 -25.333 17 -46.333 51 -63c28 -14.667 55.667 -22 83 -22c22 0 45.333 3.33301 70 10
c12 3.33301 19 4.33301 21 3s2 -6.33301 0 -15z" />
    <glyph glyph-name="uFEF2" unicode="&#x6cc;" horiz-adv-x="1277" arabic-form="final" 
d="M1304 1l-291.999 -0.000976562c-36 0 -70.667 -5.66699 -104 -17c-46 -15.333 -69 -37 -69 -65c0 -6.66699 61.5 -23.667 184.5 -51s184.5 -54.333 184.5 -81c0 -100.667 -29 -175.667 -87 -225c-98 -84 -270.667 -126 -518 -126c-298.667 0 -448 110.333 -448 331
c0 50 10.667 105.5 32 166.5s47.333 111.5 78 151.5c12 16 23 24.333 33 25s15 -4.66602 15 -15.999c0 -10 -4 -22.667 -12 -38c-38.667 -73.333 -58 -149.333 -58 -228c0 -87.333 41.333 -152 124 -194c63.333 -32 143.666 -48 240.999 -48c103.333 0 198 5.33301 284 16
c154.667 19.333 232 52.333 232 99c0 19.333 -33.667 34.666 -101 45.999c-107.333 18 -169.333 29.333 -186 34c-67.333 18.667 -101 47.334 -101 86.001c0 30.667 16.333 69 49 115c27.333 38 56 69.333 86 94c60 48.667 145.333 73 256 73h177v-148z" />
    <glyph glyph-name="uFEF3" unicode="&#x6cc;" horiz-adv-x="455" arabic-form="initial" 
d="M332 255c0 -169.333 -84.332 -254.001 -252.999 -254.001h-105v148h87c127.333 0 191 23 191 69c0 32 -29 85 -87 159l52 126c5.33301 12.667 9.66602 19 12.999 19s10.333 -7.66699 21 -23c54 -79.333 81 -160.666 81 -243.999zM450.001 -281.001l-99 -99l-99 100l99 99
zM231.001 -281.001l-99 -99l-99 100l98 99z" />
    <glyph glyph-name="uFEF4" unicode="&#x6cc;" horiz-adv-x="630" arabic-form="medial" 
d="M656 1h-98.002c-118 0 -197 38.667 -237 116c-44 -77.333 -132 -116 -264 -116h-83v148h114c124.667 0 192.667 48.333 204 145c4.66699 38.667 14.334 58 29.001 58s24 -20 28 -60c8.66699 -95.333 73.334 -143 194.001 -143h113v-148zM453.998 -281l-99 -99l-100 100
l99 99zM233.998 -281l-98 -99l-100 100l99 99z" />
    <glyph glyph-name="Hcircumflex" unicode="&#x622;" horiz-adv-x="605" arabic-form="final" 
d="M631 1l-88 -0.000976562c-95.333 0 -161.333 39 -198 117c-26 54.667 -38.667 136.334 -38 245.001l1 244c0.666992 118 -9.33301 284 -30 498l80 84c14 14.667 22.333 13.667 25 -3c18 -114.667 27 -283 27 -505v-373c0 -106 51 -159 153 -159h68v-148zM515 1363
c-56.667 -46 -125.334 -69.001 -206.001 -69.001c-12 0 -30 1.66699 -54 5s-42 5 -54 5c-8 0 -19.667 -9.5 -35 -28.5s-25.666 -28.5 -30.999 -28.5c-11.333 0 -17 8 -17 24c0 10.667 7.33301 32.334 22 65.001c16 36 30 54 42 54c16.667 0 41.5 -2.83301 74.5 -8.5
s57.833 -8.5 74.5 -8.5c73.333 0 128 5 164 15c19.333 5.33301 32 8 38 8c5.33301 0 8 -1.33301 8 -4c0 -5.33301 -8.66699 -15 -26 -29z" />
    <glyph glyph-name="uFE84" unicode="&#x623;" horiz-adv-x="542" arabic-form="final" 
d="M569 1l-87.001 -0.00195312c-95.333 0 -161.333 39 -198 117c-26 54.667 -38.667 136.334 -38 245.001l1 244c0.666992 118 -9.33301 284 -30 498l79 84c14.667 15.333 23.334 14.333 26.001 -3c18 -115.333 27 -283.666 27 -504.999v-373c0 -106 50.667 -159 152 -159
h68v-148zM441.999 1386l-16.002 -63.002c-93.333 -18 -189 -44.667 -287 -80v47c16.667 10 44.667 25.667 84 47c-54 36.667 -81 68 -81 94c0 24.667 17.667 58 53 100c38.667 46 75.667 69 111 69c44.667 0 77.334 -21.333 98.001 -64c6 -12.667 7 -22 3 -28
c-4.66699 -5.33301 -13.667 -5.66602 -27 -0.999023c-22 8 -49.667 12 -83 12c-15.333 0 -31.333 -4 -48 -12c-20.667 -9.33301 -31 -20.666 -31 -33.999c0 -25.333 17 -46.333 51 -63c28 -14.667 55.667 -22 83 -22c21.333 0 43 3 65 9l11 3
c4 0.666992 7.33301 1.33398 10 2.00098c2.66699 -0.666992 4.33398 -1.33398 5.00098 -2.00098c1.33301 -2 1 -6.66699 -1 -14z" />
    <glyph glyph-name="uFE86" unicode="&#x624;" horiz-adv-x="768" arabic-form="final" 
d="M795 1l-138.998 -0.000976562c-12 -174 -79 -322.333 -201 -445c-38.667 -38.667 -63 -58 -73 -58c-70 0 -153 7.33301 -249 22c-31.333 4.66699 -47 9.66699 -47 15s16.667 13 50 23c105.333 30.667 201.666 84 288.999 160c37.333 32.667 71.333 70.334 102 113.001
c38.667 54 58 99.333 58 136v34h-160c-122.667 0 -184 49.667 -184 149c0 63.333 18.333 131.333 55 204c42 82.667 90 124 144 124c66 0 119 -40.667 159 -122c29.333 -59.333 47.666 -128.333 54.999 -207h141v-148zM566.002 150.999c0 38.667 -13.667 77.667 -41 117
c-30.667 44.667 -66 67 -106 67c-26 0 -49.333 -10.5 -70 -31.5s-31 -44.5 -31 -70.5c0 -58 49.667 -87 149 -87c26 0 59 1.66699 99 5zM532.002 740.999l-16 -62.9971c-95.333 -18.667 -191 -45.334 -287 -80.001v47c16 10 44 25.667 84 47
c-54 35.333 -81 66.666 -81 93.999c0 24.667 17.667 58 53 100c38.667 46 75.667 69 111 69c45.333 0 78 -21.333 98 -64c6 -12.667 6.66699 -22 2 -28c-4 -6 -13 -6.33301 -27 -1c-23.333 8.66699 -50.666 13 -81.999 13c-14.667 0 -31 -4.33301 -49 -13
c-20.667 -10 -31 -21.333 -31 -34c0 -16.667 11 -34 33 -52c27.333 -22 61.333 -33 102 -33c19.333 0 40.666 3 63.999 9c12 3.33301 19.667 5 23 5c2 -0.666992 3.33301 -1.33398 4 -2.00098c1.33301 -2 1 -6.66699 -1 -14z" />
    <glyph glyph-name="uFE88" unicode="&#x625;" horiz-adv-x="533" arabic-form="final" 
d="M560 1l-87.001 -0.00195312c-95.333 0 -161.333 39 -198 117c-26 54.667 -38.667 136.334 -38 245.001l1 244c0.666992 118 -9.33301 284 -30 498l79 84c14.667 15.333 23.334 14.333 26.001 -3c18 -111.333 27 -279.666 27 -504.999v-373c0 -106 50.667 -159 152 -159
h68v-148zM485.999 -314.002l-16.001 -63.001c-100 -20.667 -195.667 -47.334 -287 -80.001v47c29.333 18 57.333 33.667 84 47c-54 36.667 -81 67.667 -81 93s17.667 59 53 101c38.667 46 75.667 69 111 69c44 0 76.667 -21.333 98 -64c6 -12.667 7 -22 3 -28
c-4.66699 -5.33301 -13.667 -5.66602 -27 -0.999023c-22 8 -49.667 12 -83 12c-15.333 0 -31.333 -4 -48 -12c-20.667 -9.33301 -31 -20.666 -31 -33.999c0 -25.333 17 -46.333 51 -63c28 -14.667 55.667 -22 83 -22c21.333 0 43 3 65 9l11 3c4 0.666992 7.33301 1 10 1
s4.33398 -0.333008 5.00098 -1c1.33301 -2 1 -6.66699 -1 -14z" />
    <glyph glyph-name="uFE8A" unicode="&#x626;" horiz-adv-x="1277" arabic-form="final" 
d="M1304 1l-291.999 -0.000976562c-36 0 -70.667 -5.66699 -104 -17c-46 -15.333 -69 -37 -69 -65c0 -6.66699 61.5 -23.667 184.5 -51s184.5 -54.333 184.5 -81c0 -100.667 -29 -175.667 -87 -225c-98 -84 -270.667 -126 -518 -126c-298.667 0 -448 110.333 -448 331
c0 50 10.667 105.5 32 166.5s47.333 111.5 78 151.5c12 16 23 24.333 33 25s15 -4.66602 15 -15.999c0 -10 -4 -22.667 -12 -38c-38.667 -73.333 -58 -149.333 -58 -228c0 -87.333 41.333 -152 124 -194c63.333 -32 143.666 -48 240.999 -48c103.333 0 198 5.33301 284 16
c154.667 19.333 232 52.333 232 99c0 19.333 -33.667 34.666 -101 45.999c-107.333 18 -169.333 29.333 -186 34c-67.333 18.667 -101 47.334 -101 86.001c0 30.667 16.333 69 49 115c27.333 38 56 69.333 86 94c60 48.667 145.333 73 256 73h177v-148zM486.001 416.999
l-16.002 -63.001c-93.333 -18 -189 -44.667 -287 -80v47c16.667 10 44.667 25.667 84 47c-54 36.667 -81 68 -81 94c0 24.667 17.667 58 53 100c38.667 46 75.667 69 111 69c44.667 0 77.334 -21.333 98.001 -64c6 -12.667 7 -22 3 -28
c-4.66699 -5.33301 -13.667 -5.66602 -27 -0.999023c-24 8.66699 -51.667 13 -83 13c-14.667 0 -30.667 -4.33301 -48 -13c-20.667 -10 -31 -21.333 -31 -34c0 -25.333 17 -46.333 51 -63c28 -14.667 55.667 -22 83 -22c21.333 0 43 3 65 9l11 3
c4 0.666992 7.33301 1.33398 10 2.00098c2.66699 -0.666992 4.33398 -1.33398 5.00098 -2.00098c1.33301 -2 1 -6.66699 -1 -14z" />
    <glyph glyph-name="uFE8B" unicode="&#x626;" horiz-adv-x="333" arabic-form="initial" 
d="M332 255c0 -169.333 -84.332 -254.001 -252.999 -254.001h-105v148h87c127.333 0 191 23 191 69c0 32 -29 85 -87 159l52 126c5.33301 12.667 9.66602 19 12.999 19s10.333 -7.66699 21 -23c54 -79.333 81 -160.666 81 -243.999zM321.001 775.999l-15.999 -62.999
c-94 -18 -189.667 -44.667 -287 -80v47c16 10 43.667 26 83 48c-54 34.667 -81 65.667 -81 93c0 25.333 17.667 58.666 53 99.999c39.333 46 76.333 69 111 69c46 0 79 -21 99 -63c6 -12.667 6.66699 -22 2 -28s-13.667 -6.33301 -27 -1c-20.667 8 -48.334 12 -83.001 12
c-14.667 0 -30.667 -4.33301 -48 -13c-20.667 -10 -31 -21.333 -31 -34c0 -25.333 17 -46.333 51 -63c28 -14.667 55.667 -22 83 -22c19.333 0 41 3 65 9l4 1c12.667 3.33301 20 4.33301 22 3s2 -6.33301 0 -15z" />
    <glyph glyph-name="uFE8C" unicode="&#x626;" horiz-adv-x="630" arabic-form="medial" 
d="M656 1h-98.002c-118 0 -197 38.667 -237 116c-44 -77.333 -132 -116 -264 -116h-83v148h114c124.667 0 192.667 48.333 204 145c4.66699 38.667 14.334 58 29.001 58s24 -20 28 -60c8.66699 -95.333 73.334 -143 194.001 -143h113v-148zM434.998 617l-16 -62.002
c-102 -21.333 -197.667 -48 -287 -80v46c23.333 15.333 51.333 31.333 84 48c-54 35.333 -81 66.333 -81 93c0 25.333 17.667 59 53 101c38.667 46 75.667 69 111 69c44 0 76.667 -21.333 98 -64c6 -12.667 7 -22 3 -28c-4.66699 -5.33301 -13.667 -5.66602 -27 -0.999023
c-22 8 -49.667 12 -83 12c-15.333 0 -31.333 -4 -48 -12c-20.667 -9.33301 -31 -20.666 -31 -33.999c0 -25.333 17 -46.333 51 -63c28 -14.667 55.667 -22 83 -22c19.333 0 43.333 3.66699 72 11c10.667 2.66699 17 3 19 1c1.33301 -2.66699 1 -7.66699 -1 -15z" />
    <glyph glyph-name="uFE8E" unicode="&#x627;" horiz-adv-x="480" arabic-form="final" 
d="M507 1l-87.001 -0.00195312c-95.333 0 -161.333 39 -198 117c-26 54.667 -38.667 136.334 -38 245.001l1 244c0.666992 118 -9.33301 284 -30 498l79 84c14.667 15.333 23.334 14.333 26.001 -3c18 -111.333 27 -279.666 27 -504.999v-373c0 -106 51 -159 153 -159h67
v-148z" />
    <glyph glyph-name="uFE90" unicode="&#x628;" horiz-adv-x="1511" arabic-form="final" 
d="M1537 1h-53.999c-60 0 -109 13.667 -147 41c-43.333 30.667 -65.333 74.667 -66 132c-142 -131.333 -361 -197 -657 -197c-305.333 0 -458 92.667 -458 278c0 62.667 23.667 127.667 71 195c8.66699 12.667 18 19 28 19c9.33301 0 14 -6 14 -18
c0 -5.33301 -1.66699 -12 -5 -20c-18.667 -42.667 -28 -81 -28 -115c0 -127.333 138.667 -191 416 -191c323.333 0 538 70.333 644 211c21.333 28 37.666 42 48.999 42c8 0 12 -8 12 -24c0 -11.333 -2.33301 -28.333 -7 -51s-7 -39.667 -7 -51c0 -68.667 47 -103 141 -103
h54v-148zM854.001 -290l-104 -104l-104 105l104 104z" />
    <glyph glyph-name="uFE91" unicode="&#x628;" horiz-adv-x="333" arabic-form="initial" 
d="M332 255c0 -169.333 -84.332 -254.001 -252.999 -254.001h-105v148h87c127.333 0 191 23 191 69c0 32 -29 85 -87 159l52 126c5.33301 12.667 9.66602 19 12.999 19s10.333 -7.66699 21 -23c54 -79.333 81 -160.666 81 -243.999zM291.001 -281.001l-104 -104l-105 105
l104 104z" />
    <glyph glyph-name="uFE92" unicode="&#x628;" horiz-adv-x="630" arabic-form="medial" 
d="M656 1h-98.002c-118 0 -197 38.667 -237 116c-44 -77.333 -132 -116 -264 -116h-83v148h114c124.667 0 192.667 48.333 204 145c4.66699 38.667 14.334 58 29.001 58s24 -20 28 -60c8.66699 -95.333 73.334 -143 194.001 -143h113v-148zM378.998 -281l-104 -104l-105 105
l104 104z" />
    <glyph glyph-name="uFE96" unicode="&#x62a;" horiz-adv-x="1511" arabic-form="final" 
d="M1537 1h-53.999c-60 0 -109 13.667 -147 41c-43.333 30.667 -65.333 74.667 -66 132c-142 -131.333 -361 -197 -657 -197c-305.333 0 -458 92.667 -458 278c0 62.667 23.667 127.667 71 195c8.66699 12.667 18 19 28 19c9.33301 0 14 -6 14 -18
c0 -5.33301 -1.66699 -12 -5 -20c-18.667 -42.667 -28 -81 -28 -115c0 -127.333 138.667 -191 416 -191c323.333 0 538 70.333 644 211c21.333 28 37.666 42 48.999 42c8 0 12 -8 12 -24c0 -11.333 -2.33301 -28.333 -7 -51s-7 -39.667 -7 -51c0 -68.667 47 -103 141 -103
h54v-148zM961.001 744l-99 -98l-99 99l98 99zM742.001 744l-99 -98l-100 99l99 99z" />
    <glyph glyph-name="uFE97" unicode="&#x62a;" horiz-adv-x="433" arabic-form="initial" 
d="M332 255c0 -169.333 -84.332 -254.001 -252.999 -254.001h-105v148h87c127.333 0 191 23 191 69c0 32 -29 85 -87 159l52 126c5.33301 12.667 9.66602 19 12.999 19s10.333 -7.66699 21 -23c54 -79.333 81 -160.666 81 -243.999zM433.001 814.999l-99 -99l-100 100l99 98
zM213.001 814.999l-98 -99l-100 100l99 98z" />
    <glyph glyph-name="uFE98" unicode="&#x62a;" horiz-adv-x="630" arabic-form="medial" 
d="M656 1h-98.002c-118 0 -197 38.667 -237 116c-44 -77.333 -132 -116 -264 -116h-83v148h114c124.667 0 192.667 48.333 204 145c4.66699 38.667 14.334 58 29.001 58s24 -20 28 -60c8.66699 -95.333 73.334 -143 194.001 -143h113v-148zM440.998 744l-98 -98l-100 99
l99 99zM221.998 744l-99 -98l-99 99l98 99z" />
    <glyph glyph-name="uFE9A" unicode="&#x62b;" horiz-adv-x="1511" arabic-form="final" 
d="M1537 1h-53.999c-60 0 -109 13.667 -147 41c-43.333 30.667 -65.333 74.667 -66 132c-142 -131.333 -361 -197 -657 -197c-305.333 0 -458 92.667 -458 278c0 62.667 23.667 127.667 71 195c8.66699 12.667 18 19 28 19c9.33301 0 14 -6 14 -18
c0 -5.33301 -1.66699 -12 -5 -20c-18.667 -42.667 -28 -81 -28 -115c0 -127.333 138.667 -191 416 -191c323.333 0 538 70.333 644 211c21.333 28 37.666 42 48.999 42c8 0 12 -8 12 -24c0 -11.333 -2.33301 -28.333 -7 -51s-7 -39.667 -7 -51c0 -68.667 47 -103 141 -103
h54v-148zM851.001 842l-93 -93l-95 94l94 93zM966.001 642l-94 -93l-94 94l93 93zM738.001 642l-93 -93l-95 94l94 93z" />
    <glyph glyph-name="uFE9B" unicode="&#x62b;" horiz-adv-x="433" arabic-form="initial" 
d="M332 255c0 -169.333 -84.332 -254.001 -252.999 -254.001h-105v148h87c127.333 0 191 23 191 69c0 32 -29 85 -87 159l52 126c5.33301 12.667 9.66602 19 12.999 19s10.333 -7.66699 21 -23c54 -79.333 81 -160.666 81 -243.999zM305.001 991.999l-94 -94l-94 95l94 93z
M420.001 791.999l-94 -93l-94 94l93 93zM192.001 791.999l-93 -93l-95 94l94 93z" />
    <glyph glyph-name="uFE9C" unicode="&#x62b;" horiz-adv-x="630" arabic-form="medial" 
d="M656 1h-98.002c-118 0 -197 38.667 -237 116c-44 -77.333 -132 -116 -264 -116h-83v148h114c124.667 0 192.667 48.333 204 145c4.66699 38.667 14.334 58 29.001 58s24 -20 28 -60c8.66699 -95.333 73.334 -143 194.001 -143h113v-148zM330.998 842l-93 -93l-94 94
l93 93zM446.998 642l-95 -93l-94 94l93 93zM217.998 642l-93 -93l-95 94l94 93z" />
    <glyph glyph-name="uFE9E" unicode="&#x62c;" horiz-adv-x="1145" arabic-form="final" 
d="M1172 1l-123.999 0.00195312c-171.333 0 -257 77 -257 231c0 32 4 66.667 12 104c-134.667 -27.333 -254.667 -75 -360 -143c-136 -88 -204 -189.333 -204 -304c0 -112.667 56.333 -197.334 169 -254.001c88.667 -44.667 194.667 -67 318 -67
c132.667 0 249.334 13.667 350.001 41c10 2.66699 18.333 4 25 4c10 0 15 -2.66699 15 -8c0 -6.66699 -6.66699 -16 -20 -28c-64 -58 -131 -97.667 -201 -119c-60.667 -18.667 -138.667 -28 -234 -28c-184.667 0 -320.334 44.333 -407.001 133
c-66 67.333 -99 152.666 -99 255.999c0 248 162.667 436.333 488 565c-136.667 23.333 -234.667 35 -294 35c-29.333 0 -69 -17.167 -119 -51.5s-71 -51.5 -63 -51.5c-10 0 -13.667 10.667 -11 32c4.66699 38.667 20 77.334 46 116.001c43.333 64.667 103 97 179 97
c61.333 0 152.666 -10.667 273.999 -32s213 -32 275 -32h94c24 0 36 -3 36 -9c0 -4.66699 -2.66699 -14.334 -8 -29.001l-35 -98c-36.667 -2 -90.667 -7 -162 -15c-2.66699 -19.333 -4 -36.333 -4 -51c0 -97.333 67.667 -146 203 -146h118v-148zM691.001 -90.998l-104 -104
l-105 105l104 104z" />
    <glyph glyph-name="uFE9F" unicode="&#x62c;" horiz-adv-x="1038" arabic-form="initial" 
d="M1025 373l-56.002 -100.003c-95.333 1.33301 -162 -5 -200 -19c-51.333 -19.333 -128.666 -54.666 -231.999 -105.999c-100 -50 -177.333 -84.667 -232 -104c-80.667 -28.667 -160.667 -43 -240 -43h-91v148h96c118.667 0 223 19.667 313 59l298 130
c-47.333 10.667 -123 35.334 -227 74.001c-86 32 -141.667 48 -167 48c-49.333 0 -99.666 -21.667 -150.999 -65c-10 -8.66699 -19 -13 -27 -13c-8.66699 0 -13 5.66699 -13 17c0 4.66699 1.33301 11 4 19c42 123.333 113.667 185 215 185c36 0 85 -14 147 -42
c104 -46.667 181.333 -78.667 232 -96c87.333 -29.333 191.333 -48 312 -56c21.333 -1.33301 32 -4 32 -8c0 -3.33301 -4.33301 -12.666 -13 -27.999zM602.998 -260.003l-104 -104l-105 105l104 104z" />
    <glyph glyph-name="uFEA0" unicode="&#x62c;" horiz-adv-x="1119" arabic-form="medial" 
d="M1154 1l-130.003 -0.00292969c-168 0 -252 83.333 -252 250c0 19.333 1 41.333 3 66c-58 -28 -138.667 -74 -242 -138c-97.333 -60.667 -171.666 -102 -222.999 -124c-82.667 -36 -164.334 -54 -245.001 -54h-91v148h96c106.667 0 212.334 26.667 317.001 80l281 146
c-29.333 6 -104 24.667 -224 56c-87.333 22.667 -139.666 34 -156.999 34c-46 0 -96.333 -23.333 -151 -70c-10 -8.66699 -19 -13 -27 -13c-8.66699 0 -13 5.66699 -13 17c0 4.66699 1.33301 11 4 19c42.667 126.667 114.334 190 215.001 190c38 0 87.333 -10.333 148 -31
c92.667 -31.333 169.667 -54 231 -68c83.333 -18.667 186.333 -26.667 309 -24c19.333 0.666992 30.333 -0.666016 33 -3.99902s1 -12.666 -5 -27.999l-43 -111c-80 0.666992 -129.667 -4 -149 -14c0 -57.333 6.66699 -96.666 20 -117.999c25.333 -40.667 82 -61 170 -61
h125v-148zM663.997 -260.003l-104 -104l-105 105l104 104z" />
    <glyph glyph-name="uFEA2" unicode="&#x62d;" horiz-adv-x="1145" arabic-form="final" 
d="M1172 1l-123.999 0.00195312c-171.333 0 -257 77 -257 231c0 32 4 66.667 12 104c-134.667 -27.333 -254.667 -75 -360 -143c-136 -88 -204 -189.333 -204 -304c0 -112.667 56.333 -197.334 169 -254.001c88.667 -44.667 194.667 -67 318 -67
c132.667 0 249.334 13.667 350.001 41c10 2.66699 18.333 4 25 4c10 0 15 -2.66699 15 -8c0 -6.66699 -6.66699 -16 -20 -28c-64 -58 -131 -97.667 -201 -119c-60.667 -18.667 -138.667 -28 -234 -28c-184.667 0 -320.334 44.333 -407.001 133
c-66 67.333 -99 152.666 -99 255.999c0 248 162.667 436.333 488 565c-136.667 23.333 -234.667 35 -294 35c-29.333 0 -69 -17.167 -119 -51.5s-71 -51.5 -63 -51.5c-10 0 -13.667 10.667 -11 32c4.66699 38.667 20 77.334 46 116.001c43.333 64.667 103 97 179 97
c61.333 0 152.666 -10.667 273.999 -32s213 -32 275 -32h94c24 0 36 -3 36 -9c0 -4.66699 -2.66699 -14.334 -8 -29.001l-35 -98c-36.667 -2 -90.667 -7 -162 -15c-2.66699 -19.333 -4 -36.333 -4 -51c0 -97.333 67.667 -146 203 -146h118v-148z" />
    <glyph glyph-name="uFEA3" unicode="&#x62d;" horiz-adv-x="1038" arabic-form="initial" 
d="M1025 373l-56.002 -100.003c-95.333 1.33301 -162 -5 -200 -19c-51.333 -19.333 -128.666 -54.666 -231.999 -105.999c-100 -50 -177.333 -84.667 -232 -104c-80.667 -28.667 -160.667 -43 -240 -43h-91v148h96c118.667 0 223 19.667 313 59l298 130
c-47.333 10.667 -123 35.334 -227 74.001c-86 32 -141.667 48 -167 48c-49.333 0 -99.666 -21.667 -150.999 -65c-10 -8.66699 -19 -13 -27 -13c-8.66699 0 -13 5.66699 -13 17c0 4.66699 1.33301 11 4 19c42 123.333 113.667 185 215 185c36 0 85 -14 147 -42
c104 -46.667 181.333 -78.667 232 -96c87.333 -29.333 191.333 -48 312 -56c21.333 -1.33301 32 -4 32 -8c0 -3.33301 -4.33301 -12.666 -13 -27.999z" />
    <glyph glyph-name="uFEA4" unicode="&#x62d;" horiz-adv-x="1119" arabic-form="medial" 
d="M1154 1l-130.003 -0.00292969c-168 0 -252 83.333 -252 250c0 19.333 1 41.333 3 66c-58 -28 -138.667 -74 -242 -138c-97.333 -60.667 -171.666 -102 -222.999 -124c-82.667 -36 -164.334 -54 -245.001 -54h-91v148h96c106.667 0 212.334 26.667 317.001 80l281 146
c-29.333 6 -104 24.667 -224 56c-87.333 22.667 -139.666 34 -156.999 34c-46 0 -96.333 -23.333 -151 -70c-10 -8.66699 -19 -13 -27 -13c-8.66699 0 -13 5.66699 -13 17c0 4.66699 1.33301 11 4 19c42.667 126.667 114.334 190 215.001 190c38 0 87.333 -10.333 148 -31
c92.667 -31.333 169.667 -54 231 -68c83.333 -18.667 186.333 -26.667 309 -24c19.333 0.666992 30.333 -0.666016 33 -3.99902s1 -12.666 -5 -27.999l-43 -111c-80 0.666992 -129.667 -4 -149 -14c0 -57.333 6.66699 -96.666 20 -117.999c25.333 -40.667 82 -61 170 -61
h125v-148z" />
    <glyph glyph-name="uFEA6" unicode="&#x62e;" horiz-adv-x="1145" arabic-form="final" 
d="M1172 1l-123.999 0.00195312c-171.333 0 -257 77 -257 231c0 32 4 66.667 12 104c-134.667 -27.333 -254.667 -75 -360 -143c-136 -88 -204 -189.333 -204 -304c0 -112.667 56.333 -197.334 169 -254.001c88.667 -44.667 194.667 -67 318 -67
c132.667 0 249.334 13.667 350.001 41c10 2.66699 18.333 4 25 4c10 0 15 -2.66699 15 -8c0 -6.66699 -6.66699 -16 -20 -28c-64 -58 -131 -97.667 -201 -119c-60.667 -18.667 -138.667 -28 -234 -28c-184.667 0 -320.334 44.333 -407.001 133
c-66 67.333 -99 152.666 -99 255.999c0 248 162.667 436.333 488 565c-136.667 23.333 -234.667 35 -294 35c-29.333 0 -69 -17.167 -119 -51.5s-71 -51.5 -63 -51.5c-10 0 -13.667 10.667 -11 32c4.66699 38.667 20 77.334 46 116.001c43.333 64.667 103 97 179 97
c61.333 0 152.666 -10.667 273.999 -32s213 -32 275 -32h94c24 0 36 -3 36 -9c0 -4.66699 -2.66699 -14.334 -8 -29.001l-35 -98c-36.667 -2 -90.667 -7 -162 -15c-2.66699 -19.333 -4 -36.333 -4 -51c0 -97.333 67.667 -146 203 -146h118v-148zM733.001 903.002l-104 -104
l-105 105l104 104z" />
    <glyph glyph-name="uFEA7" unicode="&#x62e;" horiz-adv-x="1038" arabic-form="initial" 
d="M1025 373l-56.002 -100.003c-95.333 1.33301 -162 -5 -200 -19c-51.333 -19.333 -128.666 -54.666 -231.999 -105.999c-100 -50 -177.333 -84.667 -232 -104c-80.667 -28.667 -160.667 -43 -240 -43h-91v148h96c118.667 0 223 19.667 313 59l298 130
c-47.333 10.667 -123 35.334 -227 74.001c-86 32 -141.667 48 -167 48c-49.333 0 -99.666 -21.667 -150.999 -65c-10 -8.66699 -19 -13 -27 -13c-8.66699 0 -13 5.66699 -13 17c0 4.66699 1.33301 11 4 19c42 123.333 113.667 185 215 185c36 0 85 -14 147 -42
c104 -46.667 181.333 -78.667 232 -96c87.333 -29.333 191.333 -48 312 -56c21.333 -1.33301 32 -4 32 -8c0 -3.33301 -4.33301 -12.666 -13 -27.999zM661.998 955.997l-104 -104l-104 105l104 104z" />
    <glyph glyph-name="uFEA8" unicode="&#x62e;" horiz-adv-x="1119" arabic-form="medial" 
d="M1154 1l-130.003 -0.00292969c-168 0 -252 83.333 -252 250c0 19.333 1 41.333 3 66c-58 -28 -138.667 -74 -242 -138c-97.333 -60.667 -171.666 -102 -222.999 -124c-82.667 -36 -164.334 -54 -245.001 -54h-91v148h96c106.667 0 212.334 26.667 317.001 80l281 146
c-29.333 6 -104 24.667 -224 56c-87.333 22.667 -139.666 34 -156.999 34c-46 0 -96.333 -23.333 -151 -70c-10 -8.66699 -19 -13 -27 -13c-8.66699 0 -13 5.66699 -13 17c0 4.66699 1.33301 11 4 19c42.667 126.667 114.334 190 215.001 190c38 0 87.333 -10.333 148 -31
c92.667 -31.333 169.667 -54 231 -68c83.333 -18.667 186.333 -26.667 309 -24c19.333 0.666992 30.333 -0.666016 33 -3.99902s1 -12.666 -5 -27.999l-43 -111c-80 0.666992 -129.667 -4 -149 -14c0 -57.333 6.66699 -96.666 20 -117.999c25.333 -40.667 82 -61 170 -61
h125v-148zM661.997 955.997l-104 -104l-104 105l104 104z" />
    <glyph glyph-name="uFEAA" unicode="&#x62f;" horiz-adv-x="971" arabic-form="final" 
d="M997 1l-57 -0.00292969c-48 0 -88.667 15.333 -122 46c-20.667 19.333 -45.667 53.333 -75 102c-30.667 -54.667 -66.334 -93 -107.001 -115c-49.333 -27.333 -120 -41 -212 -41c-179.333 0 -269 64.333 -269 193c0 43.333 13.333 88 40 134
c8.66699 15.333 17.334 23 26.001 23c8 0 12 -6.66699 12 -20c0 -7.33301 -1 -18.166 -3 -32.499s-3 -25.166 -3 -32.499c0 -76.667 65 -115 195 -115c183.333 0 275 35.667 275 107c0 38.667 -53 177.667 -159 417l57 99c7.33301 12.667 12.333 19.334 15 20.001
c4 -2.66699 9 -11 15 -25c42.667 -100.667 101 -252.667 175 -456c38 -104 91.667 -156 161 -156h36v-148z" />
    <glyph glyph-name="uFEAC" unicode="&#x630;" horiz-adv-x="971" arabic-form="final" 
d="M997 1l-57 -0.00292969c-48 0 -88.667 15.333 -122 46c-20.667 19.333 -45.667 53.333 -75 102c-30.667 -54.667 -66.334 -93 -107.001 -115c-49.333 -27.333 -120 -41 -212 -41c-179.333 0 -269 64.333 -269 193c0 43.333 13.333 88 40 134
c8.66699 15.333 17.334 23 26.001 23c8 0 12 -6.66699 12 -20c0 -7.33301 -1 -18.166 -3 -32.499s-3 -25.166 -3 -32.499c0 -76.667 65 -115 195 -115c183.333 0 275 35.667 275 107c0 38.667 -53 177.667 -159 417l57 99c7.33301 12.667 12.333 19.334 15 20.001
c4 -2.66699 9 -11 15 -25c42.667 -100.667 101 -252.667 175 -456c38 -104 91.667 -156 161 -156h36v-148zM615 1051l-104 -104l-105 105l104 104z" />
    <glyph glyph-name="uFEAE" unicode="&#x631;" horiz-adv-x="770" arabic-form="final" 
d="M796 1l-53.999 -0.000976562c-46.667 0 -82 8 -106 24c1.33301 -13.333 2 -26.666 2 -39.999c0 -120 -39 -235.667 -117 -347c-67.333 -96 -122.333 -144 -165 -144c-97.333 0 -181.333 5 -252 15c-23.333 3.33301 -35 9 -35 17s12 14.333 36 19
c100 20.667 200.667 73.667 302 159c108 91.333 162 179 162 263c0 56 -44.667 127.333 -134 214l59 120c4.66699 10 8.66699 15.333 12 16c4 -1.33301 9.66699 -7 17 -17c39.333 -52 69.666 -86.667 90.999 -104c40 -31.333 87.333 -47 142 -47h40v-148z" />
    <glyph glyph-name="uFEB0" unicode="&#x632;" horiz-adv-x="770" arabic-form="final" 
d="M796 1l-53.999 -0.000976562c-46.667 0 -82 8 -106 24c1.33301 -13.333 2 -26.666 2 -39.999c0 -120 -39 -235.667 -117 -347c-67.333 -96 -122.333 -144 -165 -144c-97.333 0 -181.333 5 -252 15c-23.333 3.33301 -35 9 -35 17s12 14.333 36 19
c100 20.667 200.667 73.667 302 159c108 91.333 162 179 162 263c0 56 -44.667 127.333 -134 214l59 120c4.66699 10 8.66699 15.333 12 16c4 -1.33301 9.66699 -7 17 -17c39.333 -52 69.666 -86.667 90.999 -104c40 -31.333 87.333 -47 142 -47h40v-148zM551.001 675.999
l-104 -104l-104 105l104 103z" />
    <glyph glyph-name="uFEB2" unicode="&#x633;" horiz-adv-x="1931" arabic-form="final" 
d="M1957 1h-70.001c-86 0 -146.667 35 -182 105c-30.667 -73.333 -87.334 -110 -170.001 -110c-77.333 0 -131.333 38 -162 114c-42 -76.667 -102.333 -115 -181 -115c-29.333 0 -61 5.33301 -95 16c-2.66699 -76.667 -7.33398 -158 -14.001 -244
c-34 -95.333 -107.333 -169 -220 -221c-96.667 -44.667 -201.334 -67 -314.001 -67c-112 0 -204 27.667 -276 83c-78.667 61.333 -118 146.666 -118 255.999c0 58 14.333 120 43 186c20.667 47.333 42 84.333 64 111c10.667 12.667 20.334 19 29.001 19
c8 0 12 -4.66699 12 -14c0 -6 -2 -13 -6 -21c-38 -78 -57 -149.333 -57 -214c0 -63.333 21 -118 63 -164c55.333 -60.667 139 -91 251 -91c126.667 0 237 22.667 331 68c77.333 37.333 126 78 146 122c6.66699 14.667 7.66699 43 3 85
c-4.66699 42.667 -11 74.334 -19 95.001c-15.333 40 -56.666 103.333 -123.999 190l56 106c8 15.333 14 23 18 23c3.33301 0 9.33301 -6.33301 18 -19c35.333 -53.333 59.666 -86.333 72.999 -99c36 -35.333 79.333 -53 130 -53c56.667 0 97.667 15.333 123 46
c16.667 20 30 56.333 40 109c4.66699 24 12.334 36 23.001 36s17.334 -10.667 20.001 -32c14 -107.333 60.333 -161 139 -161c94.667 0 147.334 50.667 158.001 152c2.66699 25.333 9.33398 38 20.001 38c12 0 19.667 -12.333 23 -37c13.333 -100 63.666 -150 150.999 -150
h74v-148z" />
    <glyph glyph-name="uFEB3" unicode="&#x633;" horiz-adv-x="1041" arabic-form="initial" 
d="M1035 274c0 -76 -17.6689 -138.668 -53.002 -188.001c-40 -56.667 -96.333 -85 -169 -85c-85.333 0 -146.666 35 -183.999 105c-47.333 -70 -107.333 -105 -180 -105c-93.333 0 -155.666 35 -186.999 105c-48.667 -70 -115 -105 -199 -105h-89v148h102
c92.667 0 147.334 50 164.001 150c4 24.667 12 37 24 37c10.667 0 17.334 -12.667 20.001 -38c10 -99.333 63.667 -149 161 -149c57.333 0 98 14.667 122 44c16.667 20.667 28.667 55.667 36 105c3.33301 24 10.333 36 21 36c11.333 0 18.666 -11.667 21.999 -35
c13.333 -100 64.666 -150 153.999 -150c97.333 0 146 23 146 69c0 36.667 -24 85.334 -72 146.001l58 109c9.33301 17.333 16 26 20 26s11.333 -9.66699 22 -29c40.667 -74 61 -139.333 61 -196z" />
    <glyph glyph-name="uFEB4" unicode="&#x633;" horiz-adv-x="1180" arabic-form="medial" 
d="M1207 1h-71.0068c-86 0 -146.333 35 -181 105c-30.667 -70 -87.334 -105 -170.001 -105c-72 0 -127.333 35 -166 105c-36 -70 -92.667 -105 -170 -105c-93.333 0 -155.666 35 -186.999 105c-48.667 -70 -115 -105 -199 -105h-89v148h102c92.667 0 147.334 50 164.001 150
c4 24.667 12 37 24 37c10.667 0 17.334 -12.667 20.001 -38c10 -99.333 63.667 -149 161 -149c94.667 0 147.334 49.667 158.001 149c2.66699 25.333 9.33398 38 20.001 38c12 0 19.667 -12.333 23 -37c13.333 -100 58 -150 134 -150c94.667 0 147.334 49.667 158.001 149
c2.66699 25.333 9.33398 38 20.001 38c12 0 19.667 -12.333 23 -37c12.667 -100 63.334 -150 152.001 -150h74v-148z" />
    <glyph glyph-name="uFEB6" unicode="&#x634;" horiz-adv-x="1931" arabic-form="final" 
d="M1957 1h-70.001c-86 0 -146.667 35 -182 105c-30.667 -73.333 -87.334 -110 -170.001 -110c-77.333 0 -131.333 38 -162 114c-42 -76.667 -102.333 -115 -181 -115c-29.333 0 -61 5.33301 -95 16c-2.66699 -76.667 -7.33398 -158 -14.001 -244
c-34 -95.333 -107.333 -169 -220 -221c-96.667 -44.667 -201.334 -67 -314.001 -67c-112 0 -204 27.667 -276 83c-78.667 61.333 -118 146.666 -118 255.999c0 58 14.333 120 43 186c20.667 47.333 42 84.333 64 111c10.667 12.667 20.334 19 29.001 19
c8 0 12 -4.66699 12 -14c0 -6 -2 -13 -6 -21c-38 -78 -57 -149.333 -57 -214c0 -63.333 21 -118 63 -164c55.333 -60.667 139 -91 251 -91c126.667 0 237 22.667 331 68c77.333 37.333 126 78 146 122c6.66699 14.667 7.66699 43 3 85
c-4.66699 42.667 -11 74.334 -19 95.001c-15.333 40 -56.666 103.333 -123.999 190l56 106c8 15.333 14 23 18 23c3.33301 0 9.33301 -6.33301 18 -19c35.333 -53.333 59.666 -86.333 72.999 -99c36 -35.333 79.333 -53 130 -53c56.667 0 97.667 15.333 123 46
c16.667 20 30 56.333 40 109c4.66699 24 12.334 36 23.001 36s17.334 -10.667 20.001 -32c14 -107.333 60.333 -161 139 -161c94.667 0 147.334 50.667 158.001 152c2.66699 25.333 9.33398 38 20.001 38c12 0 19.667 -12.333 23 -37c13.333 -100 63.666 -150 150.999 -150
h74v-148zM1464 844l-93 -94l-95 95l94 93zM1579 644l-94 -93l-94 94l93 93zM1351 644l-93 -93l-95 94l94 93z" />
    <glyph glyph-name="uFEB7" unicode="&#x634;" horiz-adv-x="1041" arabic-form="initial" 
d="M1035 274c0 -76 -17.6689 -138.668 -53.002 -188.001c-40 -56.667 -96.333 -85 -169 -85c-85.333 0 -146.666 35 -183.999 105c-47.333 -70 -107.333 -105 -180 -105c-93.333 0 -155.666 35 -186.999 105c-48.667 -70 -115 -105 -199 -105h-89v148h102
c92.667 0 147.334 50 164.001 150c4 24.667 12 37 24 37c10.667 0 17.334 -12.667 20.001 -38c10 -99.333 63.667 -149 161 -149c57.333 0 98 14.667 122 44c16.667 20.667 28.667 55.667 36 105c3.33301 24 10.333 36 21 36c11.333 0 18.666 -11.667 21.999 -35
c13.333 -100 64.666 -150 153.999 -150c97.333 0 146 23 146 69c0 36.667 -24 85.334 -72 146.001l58 109c9.33301 17.333 16 26 20 26s11.333 -9.66699 22 -29c40.667 -74 61 -139.333 61 -196zM714.998 940.999l-93 -94l-94 95l93 93zM830.998 740.999l-95 -94l-94 95
l94 93zM602.998 740.999l-94 -94l-95 95l94 93z" />
    <glyph glyph-name="uFEB8" unicode="&#x634;" horiz-adv-x="1180" arabic-form="medial" 
d="M1207 1h-71.0068c-86 0 -146.333 35 -181 105c-30.667 -70 -87.334 -105 -170.001 -105c-72 0 -127.333 35 -166 105c-36 -70 -92.667 -105 -170 -105c-93.333 0 -155.666 35 -186.999 105c-48.667 -70 -115 -105 -199 -105h-89v148h102c92.667 0 147.334 50 164.001 150
c4 24.667 12 37 24 37c10.667 0 17.334 -12.667 20.001 -38c10 -99.333 63.667 -149 161 -149c94.667 0 147.334 49.667 158.001 149c2.66699 25.333 9.33398 38 20.001 38c12 0 19.667 -12.333 23 -37c13.333 -100 58 -150 134 -150c94.667 0 147.334 49.667 158.001 149
c2.66699 25.333 9.33398 38 20.001 38c12 0 19.667 -12.333 23 -37c12.667 -100 63.334 -150 152.001 -150h74v-148zM723.993 844l-93 -94l-95 95l94 93zM838.993 644l-94 -93l-94 94l93 93zM610.993 644l-93 -93l-95 94l94 93z" />
    <glyph glyph-name="uFEBA" unicode="&#x635;" horiz-adv-x="1963" arabic-form="final" 
d="M1990 1l-101.001 0.00292969c-108.667 0 -202 12 -280 36c-88 -28 -188.333 -42 -301 -42c-80.667 0 -151 9.66699 -211 29c-2.66699 -80.667 -7.33398 -166.334 -14.001 -257.001c-34 -95.333 -107.333 -169 -220 -221c-96.667 -44.667 -201.334 -67 -314.001 -67
c-112 0 -204 27.667 -276 83c-78.667 61.333 -118 146.666 -118 255.999c0 58 14.333 120 43 186c20.667 47.333 42 84.333 64 111c10.667 12.667 20.334 19 29.001 19c8 0 12 -4.66699 12 -14c0 -6 -2 -13 -6 -21c-38 -78 -57 -149.333 -57 -214c0 -63.333 21 -118 63 -164
c55.333 -60.667 139 -91 251 -91c126.667 0 237 22.667 331 68c77.333 37.333 126 78 146 122c6.66699 14.667 8.33398 41.667 5.00098 81c-3.33301 38.667 -10.333 71.667 -21 99c-16.667 42.667 -58 106 -124 190l56 106c8 15.333 14.333 23 19 23
c4 0 9.66699 -6.33301 17 -19c34 -58.667 77.333 -105.334 130 -140.001c226.667 247.333 412.334 371 557.001 371c59.333 0 109 -18 149 -54c42 -38 63 -86 63 -144c0 -74 -28.333 -138.333 -85 -193c15.333 0 38.5 1.5 69.5 4.5s54.167 4.5 69.5 4.5h54v-148z
M1789 259.003c0 38 -21.333 70.333 -64 97c-37.333 23.333 -76 35 -116 35c-118.667 0 -257 -81 -415 -243c36 -2 72.667 -3 110 -3c86.667 0 175.667 6.33301 267 19c145.333 20 218 51.667 218 95z" />
    <glyph glyph-name="uFEBB" unicode="&#x635;" horiz-adv-x="1143" arabic-form="initial" 
d="M1142 340c0 -128 -74.999 -220.667 -224.999 -278c-104.667 -40 -232.667 -60 -384 -60c-87.333 0 -149.333 4.66699 -186 14c-62 16 -106 50 -132 102c-46.667 -78 -109.334 -117 -188.001 -117h-53v148h52c96.667 0 153.667 49 171 147c4 24 12 36 24 36
s19.333 -12 22 -36c10 -90 51 -137 123 -141c237.333 255.333 425.333 383 564 383c59.333 0 109 -18 149 -54c42 -38 63 -86 63 -144zM1049 266c0 38 -21.333 70.333 -64 97c-37.333 23.333 -76 35 -116 35c-120 0 -258 -81 -414 -243c36 -2 72.333 -3 109 -3
c84.667 0 173.667 6.66699 267 20c145.333 20.667 218 52 218 94z" />
    <glyph glyph-name="uFEBC" unicode="&#x635;" horiz-adv-x="1224" arabic-form="medial" 
d="M1250 1h-100.999c-88 0 -181.333 14.333 -280 43c-88 -28 -200 -42 -336 -42c-87.333 0 -149.333 4.66699 -186 14c-62 16 -106 50 -132 102c-46.667 -78 -109.334 -117 -188.001 -117h-53v148h52c96.667 0 153.667 49 171 147c4 24 12 36 24 36s19.333 -12 22 -36
c10 -90 51 -137 123 -141c237.333 255.333 425.333 383 564 383c59.333 0 109 -18 149 -54c42 -38 63 -86 63 -144c0 -78.667 -28.333 -146 -85 -202c15.333 0 38.5 1.83301 69.5 5.5s54.167 5.5 69.5 5.5h54v-148zM1049 266c0 38 -21.333 70.333 -64 97
c-37.333 23.333 -76 35 -116 35c-120 0 -258 -81 -414 -243c36 -2 72.333 -3 109 -3c84.667 0 173.667 6.66699 267 20c145.333 20.667 218 52 218 94z" />
    <glyph glyph-name="uFEBE" unicode="&#x636;" horiz-adv-x="1963" arabic-form="final" 
d="M1990 1l-101.001 0.00292969c-108.667 0 -202 12 -280 36c-88 -28 -188.333 -42 -301 -42c-80.667 0 -151 9.66699 -211 29c-2.66699 -80.667 -7.33398 -166.334 -14.001 -257.001c-34 -95.333 -107.333 -169 -220 -221c-96.667 -44.667 -201.334 -67 -314.001 -67
c-112 0 -204 27.667 -276 83c-78.667 61.333 -118 146.666 -118 255.999c0 58 14.333 120 43 186c20.667 47.333 42 84.333 64 111c10.667 12.667 20.334 19 29.001 19c8 0 12 -4.66699 12 -14c0 -6 -2 -13 -6 -21c-38 -78 -57 -149.333 -57 -214c0 -63.333 21 -118 63 -164
c55.333 -60.667 139 -91 251 -91c126.667 0 237 22.667 331 68c77.333 37.333 126 78 146 122c6.66699 14.667 8.33398 41.667 5.00098 81c-3.33301 38.667 -10.333 71.667 -21 99c-16.667 42.667 -58 106 -124 190l56 106c8 15.333 14.333 23 19 23
c4 0 9.66699 -6.33301 17 -19c34 -58.667 77.333 -105.334 130 -140.001c226.667 247.333 412.334 371 557.001 371c59.333 0 109 -18 149 -54c42 -38 63 -86 63 -144c0 -74 -28.333 -138.333 -85 -193c15.333 0 38.5 1.5 69.5 4.5s54.167 4.5 69.5 4.5h54v-148z
M1789 259.003c0 38 -21.333 70.333 -64 97c-37.333 23.333 -76 35 -116 35c-118.667 0 -257 -81 -415 -243c36 -2 72.667 -3 110 -3c86.667 0 175.667 6.33301 267 19c145.333 20 218 51.667 218 95zM1600 896.003l-104 -104l-105 105l104 104z" />
    <glyph glyph-name="uFEBF" unicode="&#x636;" horiz-adv-x="1143" arabic-form="initial" 
d="M1142 340c0 -128 -74.999 -220.667 -224.999 -278c-104.667 -40 -232.667 -60 -384 -60c-87.333 0 -149.333 4.66699 -186 14c-62 16 -106 50 -132 102c-46.667 -78 -109.334 -117 -188.001 -117h-53v148h52c96.667 0 153.667 49 171 147c4 24 12 36 24 36
s19.333 -12 22 -36c10 -90 51 -137 123 -141c237.333 255.333 425.333 383 564 383c59.333 0 109 -18 149 -54c42 -38 63 -86 63 -144zM1049 266c0 38 -21.333 70.333 -64 97c-37.333 23.333 -76 35 -116 35c-120 0 -258 -81 -414 -243c36 -2 72.333 -3 109 -3
c84.667 0 173.667 6.66699 267 20c145.333 20.667 218 52 218 94zM851.001 896l-104 -104l-105 105l104 104z" />
    <glyph glyph-name="uFEC0" unicode="&#x636;" horiz-adv-x="1224" arabic-form="medial" 
d="M1250 1h-100.999c-88 0 -181.333 14.333 -280 43c-88 -28 -200 -42 -336 -42c-87.333 0 -149.333 4.66699 -186 14c-62 16 -106 50 -132 102c-46.667 -78 -109.334 -117 -188.001 -117h-53v148h52c96.667 0 153.667 49 171 147c4 24 12 36 24 36s19.333 -12 22 -36
c10 -90 51 -137 123 -141c237.333 255.333 425.333 383 564 383c59.333 0 109 -18 149 -54c42 -38 63 -86 63 -144c0 -78.667 -28.333 -146 -85 -202c15.333 0 38.5 1.83301 69.5 5.5s54.167 5.5 69.5 5.5h54v-148zM1049 266c0 38 -21.333 70.333 -64 97
c-37.333 23.333 -76 35 -116 35c-120 0 -258 -81 -414 -243c36 -2 72.333 -3 109 -3c84.667 0 173.667 6.66699 267 20c145.333 20.667 218 52 218 94zM851.001 896l-104 -104l-105 105l104 104z" />
    </font>
</defs>
</svg>
