<?xml version="1.0" standalone="no"?>
<!DOCTYPE svg PUBLIC "-//W3C//DTD SVG 1.1//EN" "http://www.w3.org/Graphics/SVG/1.1/DTD/svg11.dtd" >
<svg xmlns="http://www.w3.org/2000/svg">
<metadata></metadata>
<defs>
<font id="b_jalalbold" horiz-adv-x="0" >
<font-face units-per-em="2048" ascent="1638" descent="-410" />
<missing-glyph horiz-adv-x="455" />
<glyph unicode="&#x651;&#x64b;" d="M401 1907l-38 -115l-303 -151l48 115zM401 1740l-38 -115l-303 -151l48 116zM403 1395q0 -54 -32 -101q-36 -51 -88 -51q-14 0 -29 5q-53 -82 -110 -82q-39 0 -64.5 29t-25.5 69q0 36 20 88q24 61 54 61q21 0 21 -33q0 -10 -4.5 -30t-4.5 -30l5 -21l14 -7q26 0 42 86 t47 86q22 0 29 -24l6 -42l12 -9q26 9 37 78q10 65 25 65q23 0 36 -59q10 -44 10 -78z" />
<glyph unicode="&#x651;&#x64c;" arabic-form="isolated" d="M483 1743l-100 -85q-51 5 -82 26q-140 -90 -293 -90l45 106q16 0 39 7q-21 34 -21 61q0 63 30 115l105 52q-40 -62 -40 -131q0 -42 25 -67l39 15q-28 38 -28 79q0 39 64 97.5t104 58.5q94 0 94 -111q0 -61 -60 -121zM403 1441q0 -54 -32 -101q-36 -51 -88 -51 q-14 0 -29 4q-53 -82 -110 -82q-40 0 -65 29t-25 70q0 35 20 87q24 62 54 62q21 0 21 -34q0 -10 -4.5 -30t-4.5 -30l5 -21l14 -6q26 0 42 86t47 86q22 0 29 -24l6 -43l12 -9q29 10 37 79q7 64 25 64q23 0 36 -59q10 -44 10 -77zM360 1873l-6 23l-17 10q-34 -6 -43 -35 q4 -30 36 -67q30 23 30 69z" />
<glyph unicode="&#x651;&#x64d;" arabic-form="isolated" d="M403 1807q0 -54 -32 -101q-36 -51 -88 -51q-14 0 -29 4q-53 -82 -110 -82q-40 0 -65 29t-25 70q0 36 20 88q23 61 54 61q21 0 21 -33q0 -10 -4.5 -30t-4.5 -30l5 -22l14 -6q26 0 42 86t47 86q22 0 29 -24l6 -43l12 -9q26 10 37 79q10 65 25 65q23 0 36 -59q10 -45 10 -78 zM401 1619l-38 -115l-303 -151l48 116zM401 1453l-38 -115l-303 -151l48 115z" />
<glyph unicode="&#x651;&#x64e;" arabic-form="isolated" d="M401 1786l-38 -115l-303 -151l48 115zM403 1441q0 -54 -32 -101q-36 -51 -88 -51q-14 0 -29 4q-53 -82 -110 -82q-40 0 -65 29t-25 70q0 35 20 87q24 62 54 62q21 0 21 -34q0 -10 -4.5 -30t-4.5 -30l5 -21l14 -6q26 0 42 86t47 86q22 0 29 -24l6 -43l12 -9q29 10 37 79 q7 64 25 64q23 0 36 -59q10 -44 10 -77z" />
<glyph unicode="&#x651;&#x64f;" arabic-form="isolated" d="M413 1416q0 -54 -32 -101q-36 -51 -88 -51q-14 0 -29 5q-53 -82 -109 -82q-40 0 -65 28.5t-25 69.5q0 38 19 88q23 61 54 61q21 0 21 -33q0 -12 -4 -30q-4 -23 -5 -30l6 -21l13 -7q26 0 42 86t47 86q22 0 29 -24l6 -42l13 -9q29 10 36 79q7 64 26 64q22 0 35 -59 q10 -44 10 -78zM396 1743l-100 -85q-50 5 -82 26q-124 -79 -241 -79l44 106q83 21 126 40q-27 39 -27 81q0 39 64 97t103 58q95 0 95 -111q0 -61 -60 -121zM273 1865l-5 23l-17 10q-34 -6 -43 -34q4 -31 35 -68q30 23 30 69z" />
<glyph unicode="&#x651;&#x650;" arabic-form="isolated" d="M403 1641q0 -54 -32 -101q-36 -52 -88 -52q-14 0 -29 5q-53 -82 -110 -82q-40 0 -65 29t-25 70q0 35 20 87q24 61 54 61q21 0 21 -33q0 -10 -4.5 -30t-4.5 -30l5 -21l14 -7q26 0 42 86t47 86q22 0 29 -23l6 -43l12 -9q29 10 37 79q7 64 25 64q23 0 36 -59q10 -44 10 -77z M401 1453l-38 -115l-303 -151l48 115z" />
<glyph unicode="&#xfedf;&#xfee0;&#xfeea;" horiz-adv-x="1562" arabic-form="isolated" d="M1562 275q0 -132 -75 -203.5t-208 -71.5h-76q-102 0 -176 78q-74 -78 -260 -78q-97 0 -146 23q-67 32 -83 118q-57 -118 -153 -118q-102 0 -184 25q-118 36 -118 110q0 18 40 102q19 40 63 116q24 33 292 187l-4 28l170 152q4 -44 22 -250l8 -142q16 -97 73 -97l132 1 q72 1 72 42q0 55 -75 471l194 202q21 -393 26 -715h249q72 0 72 42q0 29 -35 256q-34 223 -62 382l194 202l30 -431q18 -257 18 -431zM509 279l-16 182q-55 -29 -127 -78q-96 -65 -96 -93q0 -24 61 -39q45 -11 81 -11q100 0 97 39zM1138 1202q0 -54 -32 -101 q-36 -51 -88 -51q-14 0 -29 4q-53 -82 -110 -82q-40 0 -65 29t-25 70q0 39 19 88q23 61 54 61q22 0 22 -33q0 -10 -4.5 -30t-4.5 -30q0 -28 19 -28q26 0 42 86t46 86q26 0 32 -38t16 -38q23 0 35 72t27 72q22 0 36 -59q10 -43 10 -78zM966 1355q-23 0 -25 80q-2 91 -43 146 q16 28 54 81q67 -35 67 -148q0 -42 -11 -90q-16 -69 -42 -69z" />
<glyph unicode="&#xfedf;&#xfe82;" horiz-adv-x="1098" arabic-form="isolated" d="M1098 1044q0 -338 -194 -594q108 -164 108 -275q0 -135 -20 -163q-270 -56 -546 -56q-49 0 -49 98q0 82 4 95q10 34 62 66q166 100 260 221q-129 148 -313 273l-23 -42q-237 94 -237 189q0 30 43 100q44 74 70 74q33 0 129 -59q236 -145 423 -402q72 137 75 451l186 210 q22 -108 22 -186zM868 226q-13 30 -65 106q-70 -87 -166 -142q135 0 231 36zM247 1125q-75 0 -129 31q-38 -91 -93 -116q-13 11 -13 33q0 48 26 119.5t57 105.5q91 -50 176 -50q75 0 168.5 44t91.5 44q14 -4 14 -14q0 -83 -112 -144q-97 -53 -186 -53z" />
<glyph unicode="&#xfee0;&#xfe82;" horiz-adv-x="1243" arabic-form="final" d="M1283 0h-133q-256 0 -259 381q-38 -261 -197 -335q-99 -46 -402 -46q-107 0 -107 18q0 17 109 53q119 39 218 87q162 78 162 133q0 205 -267 433l-19 -39q-238 94 -238 189q0 30 43 100q44 74 70 74q36 0 134 -56q370 -212 374 -660q68 99 68 362q0 125 -35 321l181 227 l54 -850q5 -81 9 -95q15 -48 68 -48q28 0 83.5 3t83.5 3v-255zM266 1146q-75 0 -129 31q-38 -91 -93 -116q-13 11 -13 33q0 48 26 119.5t57 105.5q91 -50 176 -50q74 0 168 44t91 44q15 -4 15 -14q0 -83 -112 -144q-97 -53 -186 -53z" />
<glyph unicode="&#xfedf;&#xfe84;" horiz-adv-x="1098" arabic-form="isolated" d="M1098 1044q0 -338 -194 -594q108 -164 108 -275q0 -135 -20 -163q-270 -56 -546 -56q-49 0 -49 98q0 82 4 95q10 34 62 66q166 100 260 221q-129 148 -313 273l-23 -42q-237 94 -237 189q0 30 43 100q44 74 70 74q33 0 129 -59q236 -145 423 -402q72 137 75 451l186 210 q22 -108 22 -186zM868 226q-13 30 -65 106q-70 -87 -166 -142q135 0 231 36zM398 1274q-124 -38 -229 -122l-54 26q24 55 59 81q-60 28 -60 96q0 72 48 135q51 67 121 67q47 0 98 -44l-54 -101q-35 25 -57 25q-20 0 -39.5 -19t-19.5 -39q0 -28 48 -28q33 0 88 20 q61 22 87 25l14 -12q-3 -16 -50 -110zM377 1138z" />
<glyph unicode="&#xfee0;&#xfe84;" horiz-adv-x="1243" arabic-form="final" d="M1283 0h-133q-256 0 -259 381q-38 -261 -197 -335q-99 -46 -402 -46q-107 0 -107 18q0 17 109 53q119 39 218 87q162 78 162 133q0 205 -267 433l-19 -39q-238 94 -238 189q0 30 43 100q44 74 70 74q36 0 134 -56q370 -212 374 -660q68 99 68 362q0 125 -35 321l181 227 l54 -850q5 -81 9 -95q15 -48 68 -48q28 0 83.5 3t83.5 3v-255zM335 1277q-124 -38 -229 -122l-54 25q24 56 59 81q-60 29 -60 97q0 72 48 135q51 67 121 67q47 0 98 -44l-54 -101q-35 25 -57 25q-20 0 -39.5 -19.5t-19.5 -39.5q0 -27 47 -27q34 0 89 20q61 22 87 25l14 -12 q-3 -16 -50 -110zM314 1140z" />
<glyph unicode="&#xfedf;&#xfe88;" horiz-adv-x="1098" arabic-form="isolated" d="M1098 1044q0 -338 -194 -594q108 -164 108 -275q0 -135 -20 -163q-270 -56 -546 -56q-49 0 -49 98q0 82 4 95q10 34 62 66q166 100 260 221q-129 148 -313 273l-23 -42q-237 94 -237 189q0 30 43 100q44 74 70 74q33 0 129 -59q236 -145 423 -402q72 137 75 451l186 210 q22 -108 22 -186zM868 226q-13 30 -65 106q-70 -87 -166 -142q135 0 231 36zM584 -431q-124 -37 -230 -122l-53 26q24 55 59 81q-60 28 -60 96q0 73 47 135q51 67 122 67q47 0 97 -44l-53 -101q-35 26 -58 26q-19 0 -38.5 -20t-19.5 -39q0 -28 47 -28q34 0 89 21 q61 22 87 25l14 -13q-4 -16 -50 -110zM563 -567z" />
<glyph unicode="&#xfee0;&#xfe88;" horiz-adv-x="1243" arabic-form="final" d="M1283 0h-133q-256 0 -259 381q-38 -261 -197 -335q-99 -46 -402 -46q-107 0 -107 18q0 17 109 53q119 39 218 87q162 78 162 133q0 205 -267 433l-19 -39q-238 94 -238 189q0 30 43 100q44 74 70 74q36 0 134 -56q370 -212 374 -660q68 99 68 362q0 125 -35 321l181 227 l54 -850q5 -81 9 -95q15 -48 68 -48q28 0 83.5 3t83.5 3v-255zM592 -386q-125 -38 -230 -122l-53 25q23 56 59 81q-60 29 -60 97q0 71 48 134q51 68 120 68q48 0 98 -44l-53 -101q-35 25 -58 25q-20 0 -39.5 -19.5t-19.5 -39.5q0 -28 48 -28q33 0 90 21.5t85 24.5l15 -12 q-4 -16 -50 -110zM571 -523z" />
<glyph unicode="&#xfedf;&#xfe8e;" horiz-adv-x="1098" arabic-form="isolated" d="M1098 1044q0 -338 -194 -594q108 -164 108 -275q0 -135 -20 -163q-270 -56 -546 -56q-49 0 -49 98q0 82 4 95q10 34 62 66q166 100 260 221q-129 148 -313 273l-23 -42q-237 94 -237 189q0 30 43 100q44 74 70 74q33 0 129 -59q236 -145 423 -402q72 137 75 451l186 210 q22 -108 22 -186zM868 226q-13 30 -65 106q-70 -87 -166 -142q135 0 231 36z" />
<glyph unicode="&#xfee0;&#xfe8e;" horiz-adv-x="1243" arabic-form="final" d="M1283 0h-133q-256 0 -259 381q-38 -261 -197 -335q-99 -46 -402 -46q-107 0 -107 18q0 17 109 53q119 39 218 87q162 78 162 133q0 205 -267 433l-19 -39q-238 94 -238 189q0 30 43 100q44 74 70 74q36 0 134 -56q370 -212 374 -660q68 99 68 362q0 125 -35 321l181 227 l54 -850q5 -81 9 -95q15 -48 68 -48q28 0 83.5 3t83.5 3v-255z" />
<glyph unicode="&#x652;&#x64e;" horiz-adv-x="1" d="M113 1227l77 -77l-3 -305l-73 85z" />
<glyph unicode="&#x652;&#x64b;" horiz-adv-x="1" d="M635 1050l-78 -142l-181 89l81 141zM335 1018l-77 -143l-182 89l82 141z" />
<glyph unicode="&#x652;&#x64d;" horiz-adv-x="1" d="M926 -708l-78 -142l-181 89l81 141zM626 -740l-77 -143l-182 89l82 141z" />
<glyph unicode="&#x6c0;" horiz-adv-x="746" arabic-form="isolated" d="M457 950q-124 -38 -229 -122l-54 26q24 55 59 81q-60 28 -60 96q0 72 48 135q51 67 121 67q47 0 98 -44l-54 -101q-35 25 -57 25q-20 0 -39.5 -19.5t-19.5 -39.5q0 -27 47 -27q34 0 89 20q61 22 87 25l14 -12q-4 -16 -50 -110zM741 349q0 -152 -92 -249 q-93 -100 -244 -100q-250 0 -250 271q0 217 241 519q162 -47 252 -159q93 -116 93 -282zM628 343q0 67 -97 135q-83 58 -161 75q-87 -64 -87 -193q0 -128 122 -128q61 0 133 27q90 34 90 84z" />
<glyph unicode="&#x6a9;" horiz-adv-x="1588" arabic-form="isolated" d="M1581 1081l-94 -220q-79 -10 -214 -55q-150 -50 -193 -91q156 -47 271 -142q143 -118 143 -257q0 -238 -326 -313q-157 -36 -520 -36q-212 0 -321 42q-173 66 -173 242q0 83 63 224q68 152 134 180l5 -8q-5 -31 -44 -115q-33 -71 -33 -119q0 -192 374 -192h57q13 0 30 1 h19q127 0 301 15q303 26 303 75q0 133 -482 286l33 181q60 66 316 179q249 110 351 123z" />
<glyph unicode="&#x6cc;" horiz-adv-x="1528" arabic-form="isolated" d="M1528 568l-116 -132q-28 120 -128 120q-204 0 -356 -216q-29 -41 -29 -65q0 -38 113 -55q195 -29 209 -33q113 -30 113 -99q0 -192 -291 -348q-255 -137 -466 -137q-405 0 -405 383q0 277 179 461q22 23 59 45l7 -12q0 -3 -55 -136.5t-55 -212.5q0 -273 367 -273 q105 0 272 36q215 46 215 110q0 17 -30 17q-375 0 -375 150q0 175 213.5 383.5t389.5 208.5q166 0 169 -195z" />
<glyph unicode="&#x67e;" horiz-adv-x="1521" arabic-form="final" d="M1565 0h-129q-54 0 -95 30q-11 8 -72 70q-164 -138 -621 -138q-210 0 -322 43q-172 66 -172 241q0 83 63 224q68 153 134 180l5 -7q-5 -30 -44 -115q-33 -72 -33 -120q0 -192 373 -192q221 0 376 19q198 24 216 72q-14 67 -136 176l110 165q68 -107 94 -181 q30 -86 31 -203q57 -9 222 -9v-255zM1035 -224l-83 -141l-176 88l76 143zM735 -256l-81 -141l-178 87l78 142zM910 -453l-82 -141l-152 75l77 143z" />
<glyph unicode="&#x67e;" horiz-adv-x="622" arabic-form="initial" d="M482 305q0 -150 -113 -232q-100 -73 -256 -73h-157v255l53 -1q52 -2 95 -2q260 0 279 55q-14 68 -137 176l110 165q126 -175 126 -343zM562 -180l-83 -141l-176 88l77 143zM262 -212l-81 -141l-178 88l78 142zM437 -408l-82 -141l-152 74l77 143z" />
<glyph unicode="&#x67e;" horiz-adv-x="699" arabic-form="medial" d="M744 0h-136q-102 0 -190 111q-116 -111 -296 -111h-166v255l53 -1q52 -2 95 -2q259 0 279 55q-14 68 -137 176l110 165q72 -111 95 -175q29 -80 31 -198q27 -21 133 -22q-68 1 -76 1q-8 1 43 1h162v-255zM552 -180l-83 -141l-176 88l77 143zM252 -212l-81 -141l-178 88 l78 142zM427 -408l-82 -141l-152 74l77 143z" />
<glyph unicode="&#x686;" horiz-adv-x="1343" arabic-form="final" d="M1054 -60l-67 -124l-158 94l72 123zM938 -273l-68 -124l-131 80l72 123zM749 -98l-67 -124l-158 94l72 124zM1387 0h-119q-229 0 -233 203q-67 13 -119 13q-218 0 -370 -97q-179 -114 -179 -319q0 -343 459 -343q126 0 383 34q-145 -289 -458 -289q-527 0 -527 471 q0 169 67 323q72 167 200 259q-84 21 -135 21q-54 0 -112 -33q-64 -37 -93 -42l-9 12q17 101 102 185q89 90 187 90q87 0 257 -36.5t257 -36.5q91 0 246 22l-100 -177q12 -5 296 -5v-255z" />
<glyph unicode="&#x686;" horiz-adv-x="1299" arabic-form="initial" d="M1294 440l-117 -220q-106 5 -126 5q-64 0 -241 -69q-226 -88 -258 -97q-212 -59 -451 -59h-145v255q298 0 407 9q226 19 397 86q-81 43 -207 90q-151 57 -209 57q-56 0 -105 -26q-53 -29 -68 -31l-9 11q16 99 73 168q65 80 158 80q89 0 249 -76l248 -116q185 -66 404 -67 zM790 -224l-82 -141l-176 88l76 143zM491 -256l-81 -141l-178 87l78 142zM666 -453l-82 -141l-152 75l76 143z" />
<glyph unicode="&#x686;" horiz-adv-x="1421" arabic-form="medial" d="M1460 0h-125q-102 0 -156 61q-26 30 -61 114q-25 61 -56 61q-64 0 -244 -72q-232 -93 -264 -102q-218 -62 -598 -62v255q298 0 407 9q226 19 397 86q-85 44 -207 90q-150 57 -209 57q-56 0 -105 -26q-53 -29 -68 -31l-9 11q16 99 73 168q65 80 158 80q89 0 249 -76 l248 -116q185 -66 404 -67l-96 -189l-8 1l-3 2l11 1h262v-255zM790 -224l-82 -141l-176 88l76 143zM491 -256l-81 -141l-178 87l78 142zM666 -453l-82 -141l-152 75l76 143z" />
<glyph unicode="&#x698;" horiz-adv-x="999" arabic-form="final" d="M1048 0h-130q-67 0 -122 34q-16 -150 -106 -286q-106 -160 -244 -160q-93 0 -209.5 61t-169.5 137q125 -26 194 -26q125 0 275 114q158 120 158 241q0 111 -203 271l127 185q80 -77 116 -149q25 -55 77 -167h237v-255zM563 1113l-77 -143l-157 77l82 141zM763 904 l-78 -143l-181 89l81 141zM463 871l-77 -143l-182 90l82 141z" />
<glyph unicode="&#x6af;" horiz-adv-x="1692" arabic-form="final" d="M1555 1278l-39 -97q-117 -22 -304 -99q-197 -81 -282 -146l9 75q6 51 279 157q245 95 337 110zM1737 0h-96q-126 0 -214 120q-161 -153 -779 -153q-212 0 -321 42q-173 66 -173 242q0 83 63 224q68 152 134 180l5 -8q-5 -30 -44 -115q-33 -72 -33 -119q0 -192 374 -192 h57q13 0 30 1h19q127 0 301 15q303 26 303 75q0 133 -482 286l33 181q58 65 317 179q250 110 350 123l-94 -220q-79 -10 -214 -55q-150 -50 -193 -91q431 -130 411 -456q41 0 123 -2t123 -2v-255z" />
<glyph unicode="&#x6af;" horiz-adv-x="720" arabic-form="initial" d="M712 1278l-39 -97q-118 -23 -305 -99q-196 -80 -281 -146l8 75q5 50 280 157q245 95 337 110zM730 1081l-93 -220q-79 -10 -214 -55q-150 -50 -193 -91q156 -47 271 -142q143 -118 143 -257q0 -209 -212 -278q-118 -38 -384 -38h-81v255q468 0 534 35q12 6 12 20 q0 135 -482 288l32 181q59 65 317 179q249 110 350 123z" />
<glyph unicode="&#x6af;" horiz-adv-x="844" arabic-form="medial" d="M712 1278l-39 -97q-118 -23 -305 -99q-196 -80 -281 -146l8 75q5 50 280 157q245 95 337 110zM895 0h-105q-125 0 -213 120q-83 -84 -238 -108q-79 -12 -270 -12h-113v255q482 0 545 35q12 7 12 20q0 135 -482 288l32 181q59 65 317 179q249 110 350 123l-93 -220 q-79 -10 -214 -55q-150 -50 -193 -91q431 -130 410 -456q43 0 127.5 -2t127.5 -2v-255z" />
<glyph unicode="&#x622;" horiz-adv-x="785" arabic-form="final" d="M349 1231q-75 0 -129 31q-38 -91 -92 -116q-14 10 -14 33q0 48 26.5 120t57.5 105q90 -50 175 -50q75 0 168.5 44t91.5 44q14 -5 14 -15q0 -83 -112 -144q-96 -52 -186 -52zM818 0h-124q-272 0 -313 316l-76 579l176 194l51 -649q8 -104 25 -135q28 -53 114 -53 q24 0 73 1.5t74 1.5v-255z" />
<glyph unicode="&#x623;" horiz-adv-x="696" arabic-form="final" d="M398 1274q-124 -38 -229 -122l-54 26q24 55 59 81q-60 28 -60 96q0 72 48 135q51 67 121 67q47 0 98 -44l-54 -101q-35 25 -57 25q-20 0 -39.5 -19t-19.5 -39q0 -28 48 -28q33 0 88 20q61 22 87 25l14 -12q-3 -16 -50 -110zM729 0h-124q-272 0 -313 316l-76 579l176 194 l51 -649q8 -104 25 -136q28 -52 115 -52q24 0 73 1.5t73 1.5v-255z" />
<glyph unicode="&#x624;" horiz-adv-x="1021" arabic-form="final" d="M624 872q-125 -37 -230 -122l-53 26q23 55 59 81q-60 28 -60 96q0 72 47 135q51 67 121 67q48 0 98 -44l-53 -101q-35 26 -58 26q-20 0 -39.5 -19.5t-19.5 -39.5q0 -28 48 -28q34 0 89 20q61 23 86 26l15 -13q-4 -16 -50 -110zM1074 0h-75q-77 0 -138 23 q-30 -178 -129 -314q-119 -164 -280 -164q-88 0 -208 76q-96 61 -173 144q140 -39 276 -39q117 0 228 85q104 80 154 193q-170 0 -247 27q-133 47 -133 182q0 125 74 258q85 153 199 153q94 0 168 -142q53 -102 75 -227h209v-255zM734 241q-14 59 -58 108q-50 56 -105 56 q-27 0 -58.5 -32.5t-31.5 -60.5q0 -51 107 -65q37 -5 146 -6z" />
<glyph unicode="&#x625;" horiz-adv-x="696" arabic-form="final" d="M611 -369q-125 -37 -230 -122l-53 26q23 55 59 81q-60 28 -60 96q0 72 47 135q51 68 121 68q48 0 98 -45l-53 -101q-35 26 -58 26q-20 0 -39.5 -19.5t-19.5 -39.5q0 -28 48 -28q34 0 89 20q61 23 86 26l15 -13q-4 -16 -50 -110zM729 0h-124q-272 0 -313 316l-76 579 l176 194l51 -649q8 -104 25 -136q28 -52 115 -52q24 0 73 1.5t73 1.5v-255z" />
<glyph unicode="&#x626;" horiz-adv-x="1399" arabic-form="final" d="M1443 0h-182q0 -235 -261 -400q-231 -146 -481 -146q-405 0 -405 383q0 278 179 462q20 21 59 44l8 -12q0 -3 -55 -136t-55 -213q0 -273 366 -273q107 0 267 34q206 44 218 107q-7 12 -27 21.5t-146 58.5q-89 35 -138 70q-18 13 -16 20l31 124q12 46 290 82 q224 29 348 29v-255zM474 532q-125 -38 -230 -122l-53 26q23 55 58 81q-60 28 -60 96q0 71 48 134q52 68 121 68q48 0 98 -44l-53 -101q-8 5 -65 5q-52 0 -52 -39q0 -27 48 -27q33 0 88 20q61 22 87 25l15 -12q-4 -16 -50 -110z" />
<glyph unicode="&#x626;" horiz-adv-x="484" arabic-form="initial" d="M413 872q-125 -37 -230 -122l-53 26q23 55 59 81q-60 28 -60 96q0 72 47 135q51 67 121 67q48 0 98 -44l-53 -101q-35 26 -58 26q-19 0 -39 -20t-20 -39q0 -28 48 -28q34 0 89 20q61 23 86 26l15 -13q-4 -16 -50 -110zM482 305q0 -150 -113 -232q-100 -73 -256 -73h-157 v255l53 -1q52 -2 95 -2q260 0 279 55q-14 68 -137 176l110 165q126 -175 126 -343z" />
<glyph unicode="&#x626;" horiz-adv-x="706" arabic-form="medial" d="M413 872q-125 -37 -230 -122l-53 26q23 55 59 81q-60 28 -60 96q0 72 47 135q51 67 121 67q48 0 98 -44l-53 -101q-35 26 -58 26q-19 0 -39 -20t-20 -39q0 -28 48 -28q34 0 89 20q61 23 86 26l15 -13q-4 -16 -50 -110zM744 0h-136q-102 0 -190 111q-116 -111 -296 -111 h-166v255l53 -1q52 -2 95 -2q259 0 279 55q-14 68 -137 176l110 165q72 -111 95 -175q29 -80 31 -198q27 -21 133 -22q-68 1 -76 1q-8 1 43 1h162v-255z" />
<glyph unicode="&#x627;" horiz-adv-x="633" arabic-form="final" d="M674 0h-125q-272 0 -313 316l-75 579l175 194l51 -649q9 -119 39 -156q25 -32 101 -32q24 0 73 1.5t74 1.5v-255z" />
<glyph unicode="&#x628;" horiz-adv-x="1521" arabic-form="final" d="M1565 0h-129q-54 0 -95 30q-11 8 -72 70q-164 -138 -621 -138q-210 0 -322 43q-172 66 -172 241q0 83 63 224q68 153 134 180l5 -7q-5 -30 -44 -115q-33 -72 -33 -120q0 -192 373 -192q221 0 376 19q198 24 216 72q-14 67 -136 176l110 165q68 -107 94 -181 q30 -86 31 -203q57 -9 222 -9v-255zM912 -299l-90 -167l-212 105l96 165z" />
<glyph unicode="&#x628;" horiz-adv-x="488" arabic-form="initial" d="M482 305q0 -150 -113 -232q-100 -73 -256 -73h-157v255l53 -1q52 -2 95 -2q260 0 279 55q-14 68 -137 176l110 165q126 -175 126 -343zM333 -254l-90 -168l-212 106l95 164z" />
<glyph unicode="&#x628;" horiz-adv-x="699" arabic-form="medial" d="M744 0h-136q-102 0 -190 111q-116 -111 -296 -111h-166v255l53 -1q52 -2 95 -2q259 0 279 55q-14 68 -137 176l110 165q72 -111 95 -175q29 -80 31 -198q27 -21 133 -22q-68 1 -76 1q-8 1 43 1h162v-255zM327 -254l-90 -168l-212 106l96 164z" />
<glyph unicode="&#x629;" horiz-adv-x="1012" arabic-form="final" d="M653 1031l-40 -81q-125 -38 -230 -122l-53 26q23 55 58 81q-59 28 -59 96q0 63 43 127q50 74 125 75q47 1 98 -44l-53 -101q-10 6 -21 15q-15 10 -37 10q-20 0 -39.5 -19.5t-19.5 -39.5q0 -26 48 -27q47 -1 134 34q22 9 41 11q13 0 15 -12q0 -9 -10 -29zM1067 0h-185 q-244 0 -295 229q-57 -117 -153 -118q-299 -3 -302 129q0 20 43 109q39 79 60 109q24 34 292 187l-5 59l167 115q7 -45 19 -181l17 -196q16 -187 110 -187h232v-255zM564 361q1 20 -11 97l-15 96q-127 -66 -198 -134q-24 -23 -24 -40q0 -33 79 -50q33 -7 61 -8q29 -1 62 7 q45 11 46 32z" />
<glyph unicode="&#x62a;" horiz-adv-x="1521" arabic-form="final" d="M1565 0h-129q-54 0 -95 30q-11 8 -72 70q-164 -138 -621 -138q-210 0 -322 43q-172 66 -172 241q0 83 63 224q68 153 134 180l5 -7q-5 -30 -44 -115q-33 -72 -33 -120q0 -192 373 -192q221 0 376 19q198 24 216 72q-14 67 -136 176l110 165q68 -107 94 -181 q30 -86 31 -203q57 -9 222 -9v-255zM1040 831l-78 -142l-181 89l81 141zM740 799l-76 -143l-182 90l82 141z" />
<glyph unicode="&#x62a;" horiz-adv-x="627" arabic-form="initial" d="M482 305q0 -150 -113 -232q-100 -73 -256 -73h-157v255l53 -1q52 -2 95 -2q260 0 279 55q-14 68 -137 176l110 165q126 -175 126 -343zM607 876l-78 -142l-180 88l81 141zM307 844l-76 -144l-182 90l82 141z" />
<glyph unicode="&#x62a;" horiz-adv-x="699" arabic-form="medial" d="M744 0h-136q-102 0 -190 111q-116 -111 -296 -111h-166v255l53 -1q52 -2 95 -2q259 0 279 55q-14 68 -137 176l110 165q72 -111 95 -175q29 -80 31 -198q27 -21 133 -22q-68 1 -76 1q-8 1 43 1h162v-255zM607 876l-78 -142l-180 88l81 141zM307 844l-76 -144l-182 90 l82 141z" />
<glyph unicode="&#x62b;" horiz-adv-x="1521" arabic-form="final" d="M1565 0h-129q-54 0 -95 30q-11 8 -72 70q-164 -138 -621 -138q-210 0 -322 43q-172 66 -172 241q0 83 63 224q68 153 134 180l5 -7q-5 -30 -44 -115q-33 -72 -33 -120q0 -192 373 -192q221 0 376 19q198 24 216 72q-14 67 -136 176l110 165q68 -107 94 -181 q30 -86 31 -203q57 -9 222 -9v-255zM840 1041l-76 -143l-158 77l82 141zM1040 831l-78 -142l-181 89l81 141zM740 799l-76 -143l-182 90l82 141z" />
<glyph unicode="&#x62b;" horiz-adv-x="627" arabic-form="initial" d="M482 305q0 -150 -113 -232q-100 -73 -256 -73h-157v255l53 -1q52 -2 95 -2q260 0 279 55q-14 68 -137 176l110 165q126 -175 126 -343zM407 1086l-76 -144l-158 77l82 141zM607 876l-78 -142l-180 88l81 141zM307 844l-76 -144l-182 90l82 141z" />
<glyph unicode="&#x62b;" horiz-adv-x="699" arabic-form="medial" d="M744 0h-136q-102 0 -190 111q-116 -111 -296 -111h-166v255l53 -1q52 -2 95 -2q259 0 279 55q-14 68 -137 176l110 165q72 -111 95 -175q29 -80 31 -198q27 -21 133 -22q-68 1 -76 1q-8 1 43 1h162v-255zM407 1086l-76 -144l-158 77l82 141zM607 876l-78 -142l-180 88 l81 141zM307 844l-76 -144l-182 90l82 141z" />
<glyph unicode="&#x62c;" horiz-adv-x="1343" arabic-form="final" d="M1387 0h-119q-229 0 -233 203q-67 13 -119 13q-218 0 -370 -97q-179 -114 -179 -319q0 -343 459 -343q126 0 383 34q-145 -289 -458 -289q-527 0 -527 471q0 169 67 323q72 167 200 259q-84 21 -135 21q-54 0 -112 -33q-64 -37 -93 -42l-9 12q17 101 102 185 q89 90 187 90q87 0 257 -36.5t257 -36.5q91 0 246 22l-100 -177q12 -5 296 -5v-255zM957 -143l-90 -168l-212 106l95 164z" />
<glyph unicode="&#x62c;" horiz-adv-x="1293" arabic-form="initial" d="M1294 440l-117 -220q-106 5 -126 5q-64 0 -241 -69q-226 -88 -258 -97q-212 -59 -451 -59h-145v255q298 0 407 9q226 19 397 86q-81 43 -207 90q-151 57 -209 57q-56 0 -105 -26q-53 -29 -68 -31l-9 11q16 99 73 168q65 80 158 80q89 0 249 -76l248 -116q185 -66 404 -67 zM602 -299l-90 -167l-212 105l95 165z" />
<glyph unicode="&#x62c;" horiz-adv-x="1415" arabic-form="medial" d="M1460 0h-125q-102 0 -156 61q-26 30 -61 114q-25 61 -56 61q-64 0 -244 -72q-232 -93 -264 -102q-218 -62 -598 -62v255q298 0 407 9q226 19 397 86q-85 44 -207 90q-150 57 -209 57q-56 0 -105 -26q-53 -29 -68 -31l-9 11q16 99 73 168q65 80 158 80q89 0 249 -76 l248 -116q185 -66 404 -67l-96 -189l-8 1l-3 2l11 1h262v-255zM602 -299l-90 -167l-212 105l95 165z" />
<glyph unicode="&#x62d;" horiz-adv-x="1343" arabic-form="final" d="M1387 0h-119q-229 0 -233 203q-67 13 -119 13q-218 0 -370 -97q-179 -114 -179 -319q0 -343 459 -343q126 0 383 34q-145 -289 -458 -289q-527 0 -527 471q0 169 67 323q72 167 200 259q-84 21 -135 21q-54 0 -112 -33q-64 -37 -93 -42l-9 12q17 101 102 185 q89 90 187 90q87 0 257 -36.5t257 -36.5q91 0 246 22l-100 -177q12 -5 296 -5v-255z" />
<glyph unicode="&#x62d;" horiz-adv-x="1294" arabic-form="initial" d="M1294 440l-117 -220q-106 5 -126 5q-64 0 -241 -69q-226 -88 -258 -97q-212 -59 -451 -59h-145v255q298 0 407 9q226 19 397 86q-81 43 -207 90q-151 57 -209 57q-56 0 -105 -26q-53 -29 -68 -31l-9 11q16 99 73 168q65 80 158 80q89 0 249 -76l248 -116q185 -66 404 -67 z" />
<glyph unicode="&#x62d;" horiz-adv-x="1415" arabic-form="medial" d="M1460 0h-125q-102 0 -156 61q-26 30 -61 114q-25 61 -56 61q-64 0 -244 -72q-232 -93 -264 -102q-218 -62 -598 -62v255q298 0 407 9q226 19 397 86q-85 44 -207 90q-150 57 -209 57q-56 0 -105 -26q-53 -29 -68 -31l-9 11q16 99 73 168q65 80 158 80q89 0 249 -76 l248 -116q185 -66 404 -67l-96 -189l-8 1l-3 2l11 1h262v-255z" />
<glyph unicode="&#x62e;" horiz-adv-x="1343" arabic-form="final" d="M1387 0h-119q-229 0 -233 203q-67 13 -119 13q-218 0 -370 -97q-179 -114 -179 -319q0 -343 459 -343q126 0 383 34q-145 -289 -458 -289q-527 0 -527 471q0 169 67 323q72 167 200 259q-84 21 -135 21q-54 0 -112 -33q-64 -37 -93 -42l-9 12q17 101 102 185 q89 90 187 90q87 0 257 -36.5t257 -36.5q91 0 246 22l-100 -177q12 -5 296 -5v-255zM768 822l-90 -167l-212 105l96 165z" />
<glyph unicode="&#x62e;" horiz-adv-x="1299" arabic-form="initial" d="M1294 440l-117 -220q-106 5 -126 5q-64 0 -241 -69q-226 -88 -258 -97q-212 -59 -451 -59h-145v255q298 0 407 9q226 19 397 86q-81 43 -207 90q-151 57 -209 57q-56 0 -105 -26q-53 -29 -68 -31l-9 11q16 99 73 168q65 80 158 80q89 0 249 -76l248 -116q185 -66 404 -67 zM535 1011l-90 -167l-212 105l96 164z" />
<glyph unicode="&#x62e;" horiz-adv-x="1415" arabic-form="medial" d="M1460 0h-125q-102 0 -156 61q-26 30 -61 114q-25 61 -56 61q-64 0 -244 -72q-232 -93 -264 -102q-218 -62 -598 -62v255q298 0 407 9q226 19 397 86q-85 44 -207 90q-150 57 -209 57q-56 0 -105 -26q-53 -29 -68 -31l-9 11q16 99 73 168q65 80 158 80q89 0 249 -76 l248 -116q185 -66 404 -67l-96 -189l-8 1l-3 2l11 1h262v-255zM535 1011l-90 -167l-212 105l96 164z" />
<glyph unicode="&#x62f;" horiz-adv-x="1076" arabic-form="final" d="M1118 0h-111q-114 0 -179 89q-33 -55 -197 -86q-121 -23 -228 -23t-150 21q-65 32 -65 127q0 46 19 122q22 88 47 107q14 -19 18 -60q3 -33 27 -45q35 -17 140 -17q258 0 282 52q-17 127 -154 338l125 212q64 -90 113 -277q46 -176 46 -299q38 -9 88 -10q26 -1 90 2 q48 2 89 2v-255z" />
<glyph unicode="&#x630;" horiz-adv-x="1071" arabic-form="final" d="M1118 0h-111q-114 0 -179 89q-33 -55 -197 -86q-121 -23 -228 -23t-150 21q-65 32 -65 127q0 46 19 122q22 88 47 107q14 -19 18 -60q3 -33 27 -45q35 -17 140 -17q258 0 282 52q-17 127 -154 338l125 212q64 -90 113 -277q46 -176 46 -299q38 -9 88 -10q26 -1 90 2 q48 2 89 2v-255zM662 1150l-90 -168l-212 106l95 164z" />
<glyph unicode="&#x631;" horiz-adv-x="1000" arabic-form="final" d="M1048 0h-130q-67 0 -122 34q-16 -150 -106 -286q-106 -160 -244 -160q-93 0 -209.5 61t-169.5 137q125 -26 194 -26q125 0 275 114q158 120 158 241q0 111 -203 271l127 185q80 -77 116 -149q25 -55 77 -167h237v-255z" />
<glyph unicode="&#x632;" horiz-adv-x="999" arabic-form="final" d="M1048 0h-130q-67 0 -122 34q-16 -150 -106 -286q-106 -160 -244 -160q-93 0 -209.5 61t-169.5 137q125 -26 194 -26q125 0 275 114q158 120 158 241q0 111 -203 271l127 185q80 -77 116 -149q25 -55 77 -167h237v-255zM567 872l-90 -167l-212 105l96 165z" />
<glyph unicode="&#x633;" horiz-adv-x="1987" arabic-form="final" d="M2037 0h-101q-104 0 -164 70q-40 -70 -153 -70q-213 0 -283 104q-29 -45 -96 -75q-63 -29 -120 -29q-90 0 -150 47q0 -183 -174 -314q-159 -119 -349 -119q-139 0 -219 86t-80 226q0 59 50 195q55 150 99 154q13 -6 13 -22q0 -33 -24.5 -100t-24.5 -101q0 -183 232 -183 q136 0 213 34q87 39 160 144q19 27 19 51q0 49 -86 227l121 149q67 -223 187 -223q102 0 157 77q28 40 59 142q23 77 49 77q29 -10 29 -73q0 -24 -8.5 -70.5t-8.5 -70.5q0 -38 87 -62q68 -19 121 -19q112 0 112 53q0 87 -81 179l109 150q47 -77 54 -199q8 -144 19 -175 q13 -5 232 -5v-255z" />
<glyph unicode="&#x633;" horiz-adv-x="1283" arabic-form="initial" d="M1283 281q0 -278 -193 -278q-77 0 -154 24q-90 28 -131 77q-29 -47 -107 -78q-69 -28 -132 -28q-178 0 -267 161q-44 -109 -140 -140q-58 -19 -203 -19v255l139 -1q92 4 135 37q22 17 63 97q37 73 48 73q12 0 40 -74q31 -81 51 -98q42 -36 143 -36q123 0 177 76 q26 37 49 142q17 76 50 76q29 -10 29 -72q0 -24 -8 -71t-8 -71q0 -36 82 -61q65 -20 114 -20q130 0 130 41q0 104 -78 197l99 144q72 -100 72 -353z" />
<glyph unicode="&#x633;" horiz-adv-x="1482" arabic-form="medial" d="M1524 0h-92q-104 0 -164 70q-40 -70 -152 -70q-222 0 -295 104q-29 -47 -106 -78q-69 -28 -132 -28q-179 0 -268 161q-45 -112 -147 -143q-53 -16 -212 -16v255q204 0 147 -2q99 4 143 38q21 16 63 96q39 74 48 74q12 0 40 -74q31 -81 51 -98q42 -36 144 -36 q123 0 177 76q27 38 49 142q16 76 50 76q29 -10 29 -71q0 -24 -8.5 -71.5t-8.5 -71.5q0 -38 87 -62q68 -19 120 -19q113 0 113 53q0 87 -81 179l109 150q47 -77 54 -198q8 -146 19 -176q13 -5 223 -5v-255z" />
<glyph unicode="&#x634;" horiz-adv-x="1992" arabic-form="final" d="M2037 0h-101q-104 0 -164 70q-40 -70 -153 -70q-213 0 -283 104q-29 -45 -96 -75q-63 -29 -120 -29q-90 0 -150 47q0 -183 -174 -314q-159 -119 -349 -119q-139 0 -219 86t-80 226q0 59 50 195q55 150 99 154q13 -6 13 -22q0 -33 -24.5 -100t-24.5 -101q0 -183 232 -183 q136 0 213 34q87 39 160 144q19 27 19 51q0 49 -86 227l121 149q67 -223 187 -223q102 0 157 77q28 40 59 142q23 77 49 77q29 -10 29 -73q0 -24 -8.5 -70.5t-8.5 -70.5q0 -38 87 -62q68 -19 121 -19q112 0 112 53q0 87 -81 179l109 150q47 -77 54 -199q8 -144 19 -175 q13 -5 232 -5v-255zM1373 1113l-77 -143l-157 77l82 141zM1573 904l-78 -143l-181 89l81 141zM1273 871l-76 -143l-182 90l82 141z" />
<glyph unicode="&#x634;" horiz-adv-x="1288" arabic-form="initial" d="M1283 281q0 -278 -193 -278q-77 0 -154 24q-90 28 -131 77q-29 -47 -107 -78q-69 -28 -132 -28q-178 0 -267 161q-44 -109 -140 -140q-58 -19 -203 -19v255l139 -1q92 4 135 37q22 17 63 97q37 73 48 73q12 0 40 -74q31 -81 51 -98q42 -36 143 -36q123 0 177 76 q26 37 49 142q17 76 50 76q29 -10 29 -72q0 -24 -8 -71t-8 -71q0 -36 82 -61q65 -20 114 -20q130 0 130 41q0 104 -78 197l99 144q72 -100 72 -353zM874 1113l-77 -143l-158 77l82 141zM1073 904l-77 -143l-181 89l81 141zM774 871l-77 -143l-182 90l82 141z" />
<glyph unicode="&#x634;" horiz-adv-x="1482" arabic-form="medial" d="M1524 0h-92q-104 0 -164 70q-40 -70 -152 -70q-222 0 -295 104q-29 -47 -106 -78q-69 -28 -132 -28q-179 0 -268 161q-45 -112 -147 -143q-53 -16 -212 -16v255q204 0 147 -2q99 4 143 38q21 16 63 96q39 74 48 74q12 0 40 -74q31 -81 51 -98q42 -36 144 -36 q123 0 177 76q27 38 49 142q16 76 50 76q29 -10 29 -71q0 -24 -8.5 -71.5t-8.5 -71.5q0 -38 87 -62q68 -19 120 -19q113 0 113 53q0 87 -81 179l109 150q47 -77 54 -198q8 -146 19 -176q13 -5 223 -5v-255zM896 1113l-77 -143l-157 77l82 141zM1096 904l-78 -143l-181 89 l81 141zM796 871l-77 -143l-182 90l82 141z" />
<glyph unicode="&#x635;" horiz-adv-x="2337" arabic-form="final" d="M2381 0h-158q-156 0 -232 154q-66 -66 -178 -110t-207 -44h-463q-114 0 -173 47q0 -183 -174 -314q-159 -119 -349 -119q-139 0 -219 86t-80 226q0 62 49 195q55 150 100 154q13 -6 13 -22q0 -33 -24.5 -100t-24.5 -101q0 -183 232 -183q135 0 213 34q88 39 160 144 q19 28 19 51q0 49 -86 227l121 149q80 -141 92 -154q57 -65 161 -67l312 260q230 175 336 175t189 -100q78 -94 78 -203q0 -60 -20 -113q27 -16 91 -20q43 -3 122 0l100 3v-255zM1941 346q0 51 -71 94q-63 38 -120 38q-94 0 -216 -78q-56 -36 -188 -145h186q183 0 233 5 q176 17 176 86z" />
<glyph unicode="&#x635;" horiz-adv-x="1531" arabic-form="initial" d="M1531 385q0 -172 -159 -284q-143 -101 -323 -101h-485q-99 0 -144 39q-40 34 -70 133q-76 -172 -202 -172h-192v255h155q117 0 158 29q19 14 35 65.5t48 72.5q41 -47 74 -109q21 -40 48 -49q32 -11 142 -11l312 260q230 175 336 175t189 -100q78 -94 78 -203zM1384 346 q0 52 -71 94q-64 38 -120 38q-94 0 -216 -78q-61 -39 -188 -145h186q183 0 233 5q176 17 176 86z" />
<glyph unicode="&#x635;" horiz-adv-x="1762" arabic-form="medial" d="M1804 0h-149q-157 0 -232 154q-70 -71 -178 -113q-104 -41 -207 -41h-485q-99 0 -144 39q-40 34 -70 133q-48 -109 -112 -145q-50 -28 -155 -28h-55l-61 1v255h144q117 0 158 29q19 14 35 65.5t48 72.5q43 -49 77 -112q21 -39 47 -47q31 -10 140 -10l312 260 q230 175 336 175t189 -100q78 -94 78 -203q0 -60 -20 -113q27 -16 89 -20q42 -3 117 0l98 3v-255zM1373 346q0 51 -72 94q-64 38 -119 38q-94 0 -216 -78q-61 -39 -188 -145h186q183 0 233 5q176 17 176 86z" />
<glyph unicode="&#x636;" horiz-adv-x="2331" arabic-form="final" d="M2381 0h-158q-156 0 -232 154q-66 -66 -178 -110t-207 -44h-463q-114 0 -173 47q0 -183 -174 -314q-159 -119 -349 -119q-139 0 -219 86t-80 226q0 62 49 195q55 150 100 154q13 -6 13 -22q0 -33 -24.5 -100t-24.5 -101q0 -183 232 -183q135 0 213 34q88 39 160 144 q19 28 19 51q0 49 -86 227l121 149q80 -141 92 -154q57 -65 161 -67l312 260q230 175 336 175t189 -100q78 -94 78 -203q0 -60 -20 -113q27 -16 91 -20q43 -3 122 0l100 3v-255zM1941 346q0 51 -71 94q-63 38 -120 38q-94 0 -216 -78q-56 -36 -188 -145h186q183 0 233 5 q176 17 176 86zM1700 972l-89 -167l-212 105l95 164z" />
<glyph unicode="&#x636;" horiz-adv-x="1532" arabic-form="initial" d="M1531 385q0 -172 -159 -284q-143 -101 -323 -101h-485q-99 0 -144 39q-40 34 -70 133q-76 -172 -202 -172h-192v255h155q117 0 158 29q19 14 35 65.5t48 72.5q41 -47 74 -109q21 -40 48 -49q32 -11 142 -11l312 260q230 175 336 175t189 -100q78 -94 78 -203zM1384 346 q0 52 -71 94q-64 38 -120 38q-94 0 -216 -78q-61 -39 -188 -145h186q183 0 233 5q176 17 176 86zM1151 978l-90 -168l-212 106l96 164z" />
<glyph unicode="&#x636;" horiz-adv-x="1762" arabic-form="medial" d="M1804 0h-149q-157 0 -232 154q-70 -71 -178 -113q-104 -41 -207 -41h-485q-99 0 -144 39q-40 34 -70 133q-48 -109 -112 -145q-50 -28 -155 -28h-55l-61 1v255h144q117 0 158 29q19 14 35 65.5t48 72.5q43 -49 77 -112q21 -39 47 -47q31 -10 140 -10l312 260 q230 175 336 175t189 -100q78 -94 78 -203q0 -60 -20 -113q27 -16 89 -20q42 -3 117 0l98 3v-255zM1373 346q0 51 -72 94q-64 38 -119 38q-94 0 -216 -78q-61 -39 -188 -145h186q183 0 233 5q176 17 176 86zM1098 986l-90 -167l-212 105l96 165z" />
<glyph unicode="&#x637;" horiz-adv-x="1613" arabic-form="final" d="M1661 0h-158q-156 0 -232 154q-69 -70 -176.5 -112t-208.5 -42h-555q-113 0 -176 137q-23 50 -24 75q-1 32 75 32h209q13 0 51 37q27 27 39 35q-23 188 -35 266l-32 212q-3 24 -12 87l178 221l20 -238q10 -119 10 -231q0 -139 -16 -240l107 85q146 116 212 155 q92 54 164 55q106 1 189 -99q78 -96 78 -204q0 -60 -20 -113q28 -17 63 -17h250v-255zM1221 346q1 50 -72 94q-65 38 -119 38q-116 0 -290 -129q-15 -11 -114 -94h157q168 0 230 4q87 6 124 15q83 21 84 72z" />
<glyph unicode="&#x637;" horiz-adv-x="1131" arabic-form="initial" d="M1131 385q0 -179 -169 -290q-145 -95 -313 -95h-693v255h223q25 12 90 61q-22 172 -36 266l-31 212q-3 19 -12 87l177 221l20 -238q10 -119 10 -231q0 -139 -15 -240l106 85q142 114 212 155q92 54 165 55q105 1 188 -100q78 -95 78 -203zM985 346q1 50 -72 93 q-65 39 -119 39q-116 0 -290 -129q-15 -11 -114 -94h156q169 0 231 4q86 6 123 15q84 21 85 72z" />
<glyph unicode="&#x637;" horiz-adv-x="1365" arabic-form="medial" d="M1415 0h-149q-157 0 -231 154q-70 -70 -177.5 -112t-208.5 -42h-693v255h223q25 12 90 61q-22 172 -36 266l-31 212q-3 19 -12 87l177 221l20 -238q10 -119 10 -231q0 -139 -15 -240l106 85q142 114 212 155q92 54 165 55q105 1 188 -100q78 -95 78 -203q0 -60 -20 -113 q28 -17 63 -17h241v-255zM985 346q1 50 -72 93q-65 39 -119 39q-116 0 -290 -129q-15 -11 -114 -94h156q169 0 231 4q86 6 123 15q84 21 85 72z" />
<glyph unicode="&#x638;" horiz-adv-x="1602" arabic-form="final" d="M1661 0h-158q-156 0 -232 154q-69 -70 -176.5 -112t-208.5 -42h-555q-54 0 -99.5 35t-76.5 102q-23 51 -24 75q-1 32 75 32h209q13 0 51 37q27 27 39 35q-23 188 -35 266l-32 212q-3 24 -12 87l178 221l20 -238q10 -119 10 -231q0 -139 -16 -240l107 85q146 116 212 155 q92 54 164 55q106 1 189 -99q78 -96 78 -204q0 -60 -20 -113q28 -17 63 -17h250v-255zM1221 346q1 50 -72 94q-65 38 -119 38q-116 0 -290 -129q-15 -11 -114 -94h157q168 0 230 4q87 6 124 15q83 21 84 72zM1168 1011l-90 -167l-212 105l95 164z" />
<glyph unicode="&#x638;" horiz-adv-x="1132" arabic-form="initial" d="M1131 385q0 -179 -169 -290q-145 -95 -313 -95h-693v255h223q25 12 90 61q-22 172 -36 266l-31 212q-3 19 -12 87l177 221l20 -238q10 -119 10 -231q0 -139 -15 -240l106 85q142 114 212 155q92 54 165 55q105 1 188 -100q78 -95 78 -203zM985 346q1 50 -72 93 q-65 39 -119 39q-116 0 -290 -129q-15 -11 -114 -94h156q169 0 231 4q86 6 123 15q84 21 85 72zM957 1011l-90 -167l-212 105l95 164z" />
<glyph unicode="&#x638;" horiz-adv-x="1365" arabic-form="medial" d="M1415 0h-149q-156 0 -231 154q-70 -71 -177 -112.5t-209 -41.5h-693v255h223q25 11 90 61q-25 200 -79 565l177 221q30 -352 30 -469q0 -139 -15 -240l228 181q161 114 255 114q106 0 188 -100q78 -95 78 -203q0 -60 -20 -113q27 -16 90 -20q42 -3 117 0l97 3v-255z M985 346q0 51 -72 94q-64 38 -119 38q-95 0 -217 -78q-56 -36 -187 -145h185q182 0 233 5q177 17 177 86zM957 1011l-90 -167l-212 105l95 164z" />
<glyph unicode="&#x639;" horiz-adv-x="999" arabic-form="final" d="M1160 -482q-144 -288 -457 -288q-528 0 -528 470q0 169 67 323q72 167 200 260q-25 86 -171 97l-11 13q0 8 41 159q117 86 242 86q80 0 136 -47q60 -50 60 -128q0 -88 -90 -181q68 -34 194 -34q34 0 102.5 3.5t102.5 3.5v-255h-259q-80 0 -155 44.5t-117 114.5 q-198 -111 -198 -331q0 -197 139 -279q108 -64 319 -64q126 0 383 33z" />
<glyph unicode="&#x639;" horiz-adv-x="975" arabic-form="initial" d="M975 324l-139 -252q-83 -32 -244 -53q-142 -19 -253 -19h-383v255h298q-82 78 -82 202q0 117 82 213q86 101 201 101q78 0 204 -65q133 -69 135 -124l-13 -8q-30 0 -93.5 21t-96.5 21q-58 0 -142 -42q-94 -47 -94 -98q0 -86 133 -146q111 -50 209 -50q130 0 278 44z" />
<glyph unicode="&#x639;" horiz-adv-x="832" arabic-form="medial" d="M879 0h-145q-82 0 -163 48.5t-115 121.5q-70 -100 -163 -138q-78 -32 -212 -32h-125v255l203 -1q193 3 227 29q-25 86 -171 97l-11 13q1 8 41 159q117 86 242 86q81 0 137 -46q60 -50 60 -129q0 -88 -90 -181q55 -28 140 -30q-34 1 -36 2q26 1 181 1v-255z" />
<glyph unicode="&#x63a;" horiz-adv-x="999" arabic-form="final" d="M1160 -482q-67 -133 -205 -238q-28 -16 -55 -25q-78 -25 -197 -25q-382 -2 -489 257q-38 92 -39 213q-1 200 94 377q72 134 173 206q-11 37 -48.5 65t-76.5 29q-27 0 -46 3q-10 1 -11 13q0 7 4 22l37 137q117 86 242 86q80 0 136 -47q60 -50 60 -128q0 -88 -90 -181 q56 -27 116 -27h283v-255h-259q-90 0 -174 58q-63 43 -98 101q-196 -110 -198 -331q-1 -197 138 -279q109 -64 320 -64q75 0 242 17q65 7 141 16zM646 1011l-90 -167l-212 105l96 164z" />
<glyph unicode="&#x63a;" horiz-adv-x="971" arabic-form="initial" d="M975 324l-139 -252q-84 -32 -249 -53q-146 -19 -256 -19h-375v255h298q-81 77 -82 202q-1 87 59 180t140 121q37 13 84 13q146 0 285 -125q54 -48 54 -64q0 -8 -13 -8q-14 0 -65 18q-64 23 -125 24q-68 1 -135 -37q-101 -57 -101 -103q0 -45 75 -109q101 -86 267 -87 q127 -1 278 44zM591 1011l-90 -167l-212 105l95 164z" />
<glyph unicode="&#x63a;" horiz-adv-x="832" arabic-form="medial" d="M879 0h-145q-99 0 -185 64q-67 49 -93 106q-73 -103 -167 -140q-76 -30 -218 -30h-115v255h228q165 0 202 28q-10 37 -47.5 65t-76.5 29q-23 0 -47 3q-9 2 -11 13q1 6 5 22l36 137q117 86 242 86q81 0 137 -46q60 -50 60 -129q0 -88 -90 -181q56 -27 115 -27h170v-255z M591 1011l-90 -167l-212 105l95 164z" />
<glyph unicode="&#x641;" horiz-adv-x="1624" arabic-form="final" d="M1666 0h-114q-109 0 -171 114q-79 -85 -261 -120q-163 -32 -472 -32q-212 0 -322 43q-171 66 -172 241q-1 88 53 205q50 111 116 179q19 20 28 20q4 -1 5 -7q0 3 -49 -125q-28 -72 -28 -110q-2 -120 116 -159q90 -30 364 -31q175 -1 289 22q-5 12 -35 56q-44 64 -45 141 q-2 115 76 228q69 101 140 102q133 2 216 -244q44 -131 44 -230v-19q0 -7 -2 -19h224v-255zM1324 271q7 13 7 35q0 67 -43 149q-49 93 -109 94q-34 1 -67.5 -36.5t-33.5 -71.5q-1 -52 122 -107q89 -40 124 -63zM1134 1017l-90 -168l-212 106l96 164z" />
<glyph unicode="&#x641;" horiz-adv-x="640" arabic-form="initial" d="M640 296q2 -173 -124 -248q-80 -48 -192 -48h-368v255h274q-23 34 -38 61q-27 50 -27 115q0 30 1 37q1 20 6 39q12 69 69 152q69 100 140 101q115 2 197 -197q29 -69 48 -163q14 -66 14 -104zM521 264q6 13 6 36q0 66 -43 148q-50 94 -109 95q-32 0 -66 -38t-35 -71 q-1 -52 122 -107q91 -40 125 -63zM402 1017l-90 -168l-212 106l95 164z" />
<glyph unicode="&#x641;" horiz-adv-x="888" arabic-form="medial" d="M930 0h-114q-112 0 -164 104q-83 -104 -206 -104h-490v255h340q-64 93 -64 176q0 30 1 37q1 20 6 39q11 70 68 152q69 100 140 101q116 2 198 -197q29 -70 47 -173q13 -74 13 -135h225v-255zM587 264q7 13 7 36q0 66 -43 148q-50 94 -109 95q-33 0 -67 -37.5t-34 -71.5 q-1 -52 122 -107q89 -40 124 -63zM491 1017l-90 -168l-212 106l95 164z" />
<glyph unicode="&#x642;" horiz-adv-x="1319" arabic-form="final" d="M1370 0h-188q-32 -240 -200 -379q-163 -136 -408 -136q-180 0 -282 89q-108 95 -108 272q0 110 45 234q32 87 71 148q19 29 36 31q14 0 14 -21q0 -13 -7 -32q-33 -89 -38 -104q-19 -60 -19 -105q-3 -256 331 -257q142 -1 270 60q104 49 154 116q23 31 27 84h-182 q-123 0 -174 77q-35 53 -36 152q-1 109 73 238q83 145 184 146q94 1 168 -138q55 -103 76 -220h193v-255zM1022 239q-12 52 -50 100q-45 57 -92 57q-41 0 -77 -37t-37 -79q-1 -48 134 -49q77 -1 122 8zM1063 872l-77 -142l-181 89l81 141zM764 840l-77 -143l-182 90l82 141z " />
<glyph unicode="&#x642;" horiz-adv-x="655" arabic-form="initial" d="M640 296q2 -173 -124 -248q-80 -48 -192 -48h-368v255h274q-23 34 -38 61q-27 50 -27 115q0 30 1 37q1 20 6 39q12 69 69 152q69 100 140 101q115 2 197 -197q29 -69 48 -163q14 -66 14 -104zM521 264q6 13 6 36q0 66 -43 148q-50 94 -109 95q-32 0 -66 -38t-35 -71 q-1 -52 122 -107q91 -40 125 -63zM629 1003l-77 -142l-181 89l81 141zM330 971l-77 -143l-182 90l82 141z" />
<glyph unicode="&#x642;" horiz-adv-x="892" arabic-form="medial" d="M939 0h-123q-112 0 -164 104q-83 -104 -206 -104h-490v255h340q-69 100 -64 192q5 96 63 196q68 117 152 117q122 0 198 -201q60 -158 60 -304h234v-255zM587 264q7 14 7 36q0 65 -44 149q-49 94 -108 94q-33 0 -67 -37.5t-34 -71.5q0 -45 102 -98zM629 1003l-77 -142 l-181 89l81 141zM330 971l-77 -143l-182 90l82 141z" />
<glyph unicode="&#x643;" horiz-adv-x="1696" arabic-form="final" d="M1737 0h-96q-126 0 -214 120q-161 -153 -779 -153q-212 0 -321 42q-173 66 -173 242q0 83 63 224q68 152 134 180l5 -8q-5 -30 -44 -115q-33 -72 -33 -119q0 -192 374 -192h57q13 0 30 1h19q127 0 301 15q303 26 303 75q0 133 -482 286l33 181q58 65 317 179 q250 110 350 123l-94 -220q-79 -10 -214 -55q-150 -50 -193 -91q431 -130 411 -456q41 0 123 -2t123 -2v-255z" />
<glyph unicode="&#x643;" horiz-adv-x="731" arabic-form="initial" d="M730 1081l-93 -220q-79 -10 -214 -55q-150 -50 -193 -91q156 -47 271 -142q143 -118 143 -257q0 -209 -212 -278q-118 -38 -384 -38h-81v255q468 0 534 35q12 6 12 20q0 135 -482 288l32 181q59 65 317 179q249 110 350 123z" />
<glyph unicode="&#x643;" horiz-adv-x="844" arabic-form="medial" d="M895 0h-105q-125 0 -213 120q-83 -84 -238 -108q-79 -12 -270 -12h-113v255q482 0 545 35q12 7 12 20q0 135 -482 288l32 181q59 65 317 179q249 110 350 123l-93 -220q-79 -10 -214 -55q-150 -50 -193 -91q431 -130 410 -456q43 0 127.5 -2t127.5 -2v-255z" />
<glyph unicode="&#x644;" horiz-adv-x="1211" arabic-form="final" d="M1255 0h-90q-77 0 -116 31q0 -212 -174 -363q-166 -146 -381 -146q-140 0 -229 93t-89 234q0 81 45 231q53 175 108 182q13 -6 13 -21q0 -28 -31.5 -111.5t-31.5 -129.5q0 -106 79 -167q72 -56 181 -56q266 0 373 177q8 13 8 34q0 12 -6 65l-98 864l177 221 q45 -577 58 -883h204v-255z" />
<glyph unicode="&#x644;" horiz-adv-x="385" arabic-form="initial" d="M385 275q0 -132 -75 -203.5t-208 -71.5h-146v255q24 0 73 -3.5t74 -3.5q138 0 138 49q0 105 -37 290q-16 81 -61 292l194 202l31 -402q17 -234 17 -404z" />
<glyph unicode="&#x644;" horiz-adv-x="542" arabic-form="medial" d="M583 0h-90q-102 0 -177 78q-74 -78 -214 -78h-146v255q25 0 75.5 -3.5t75.5 -3.5q134 0 134 49q0 105 -37 290q-16 81 -61 292l194 202q22 -275 48 -826h198v-255z" />
<glyph unicode="&#x645;" horiz-adv-x="1032" arabic-form="final" d="M1073 0h-91q-85 0 -184 84l-29 -41q-6 -8 -10 -13q-25 -31 -50 -44q-152 41 -251 41q-181 0 -181 -70q0 -67 46.5 -224t46.5 -238q0 -53 -19 -120q-23 -80 -57 -102q-9 16 -13 81q-2 31 -6 91q-5 56 -66 256q-54 177 -54 225q0 51 54 141q66 109 137 146q66 35 198 35 q38 0 114 -12q0 38 -79 98t-119 60t-79.5 -32t-49.5 -33q-15 6 -15 20q0 56 82 137t138 81q93 0 205 -108.5t126 -203.5h206v-255z" />
<glyph unicode="&#x645;" horiz-adv-x="787" arabic-form="initial" d="M787 248q0 -96 -65 -175q-69 -83 -164 -83q-230 0 -315 158q-49 -148 -178 -148h-109v255q149 0 196 20q53 22 181 170q111 128 192 128q97 0 182 -116q80 -109 80 -209zM654 239q0 46 -61 101t-108 55q-33 0 -75.5 -36.5t-42.5 -68.5t94 -58q77 -21 126 -21q67 0 67 28z " />
<glyph unicode="&#x645;" horiz-adv-x="955" arabic-form="medial" d="M1000 0h-94q-115 0 -171 73q-73 -76 -178 -76q-238 0 -314 151q-49 -148 -178 -148h-109v255q149 0 196 20q53 22 181 170q111 128 192 128q102 0 178 -112q58 -85 87 -206h210v-255zM654 250q0 45 -61.5 95t-107.5 50q-33 0 -75.5 -36.5t-42.5 -68.5q0 -31 94 -52 q72 -16 124 -16q69 0 69 28z" />
<glyph unicode="&#x646;" horiz-adv-x="1274" arabic-form="final" d="M731 579l-89 -167l-212 105l95 165zM1321 0h-128q-92 0 -143 37q0 -214 -173 -367q-166 -147 -383 -148q-140 -1 -230 94q-87 92 -88 233q0 108 45 234q32 87 71 148q19 29 37 31q13 0 13 -21q0 -12 -7 -31q-33 -88 -38 -105q-17 -56 -18 -105q-1 -105 78 -166 q72 -56 180 -57q246 -2 359 150q6 8 8 23l-3 28q-11 101 -67 192q-19 30 -56 74l128 184q15 -15 86 -121q35 -52 91 -52h238v-255z" />
<glyph unicode="&#x646;" horiz-adv-x="493" arabic-form="initial" d="M482 305q0 -150 -113 -232q-100 -73 -256 -73h-157v255l53 -1q52 -2 95 -2q260 0 279 55q-14 68 -137 176l110 165q126 -175 126 -343zM357 911l-89 -167l-213 105l96 164z" />
<glyph unicode="&#x646;" horiz-adv-x="706" arabic-form="medial" d="M744 0h-136q-102 0 -190 111q-116 -111 -296 -111h-166v255l53 -1q52 -2 95 -2q259 0 279 55q-14 68 -137 176l110 165q72 -111 95 -175q29 -80 31 -198q27 -21 133 -22q-68 1 -76 1q-8 1 43 1h162v-255zM357 911l-89 -167l-213 105l96 164z" />
<glyph unicode="&#x647;" horiz-adv-x="1017" arabic-form="final" d="M1067 0h-185q-244 0 -295 229q-57 -118 -153 -118q-302 0 -302 129q0 17 40 102q56 119 144 182q106 60 211 121l-5 59l167 115q11 -119 25 -273.5t18 -174.5q27 -116 103 -116h232v-255zM564 367q0 12 -26 187q-222 -114 -222 -174q0 -29 61 -46q43 -12 84 -12 q103 0 103 45z" />
<glyph unicode="&#x647;" horiz-adv-x="1097" arabic-form="initial" d="M1097 293q0 -57 -56 -173q-61 -126 -106 -126q-291 0 -465 86q-128 -80 -246 -80h-268v255h390q-6 39 -6 85q0 178 135 314q-49 33 -87 43l106 221q220 -88 390 -240q213 -191 213 -385zM962 260q0 83 -171 230q-20 -129 -81 -221q129 -47 185 -47q67 0 67 38zM688 412 q0 44 -24 108q-29 77 -63 77q-38 0 -111 -83.5t-73 -123.5q0 -26 52 -52q46 -24 76 -24q32 0 87.5 34.5t55.5 63.5z" />
<glyph unicode="&#x647;" horiz-adv-x="955" arabic-form="medial" d="M1006 0h-260q93 -149 93 -221q0 -59 -42 -166q-47 -120 -93 -120q-208 0 -400 213q-79 87 -108 306q-72 -12 -163 -12h-77v255h253q43 131 140 318q129 247 197 247q55 0 105 -141q43 -121 43 -194q0 -116 -68 -247q187 17 258 17h122v-255zM572 398q0 32 -26 95 q-28 69 -53 69q-56 0 -120 -131q-58 -119 -59 -189q79 13 155 49q103 49 103 107zM712 -250q0 95 -146 195q-137 93 -234 88l-18 -1q31 -111 134 -216q113 -115 219 -115q45 0 45 49z" />
<glyph unicode="&#x648;" horiz-adv-x="1041" arabic-form="final" d="M1074 0h-75q-77 0 -138 23q-30 -178 -129 -314q-119 -164 -280 -164q-88 0 -207 76q-97 62 -174 144q140 -39 276 -39q117 0 228 85q104 80 154 193q-170 0 -247 27q-133 47 -133 182q0 124 74 258q85 153 199 153q94 0 168 -142q53 -102 75 -227h209v-255zM734 241 q-14 59 -58 108q-50 56 -105 56q-27 0 -58.5 -32.5t-31.5 -60.5q0 -51 107 -65q37 -5 146 -6z" />
<glyph unicode="&#x649;" horiz-adv-x="1399" arabic-form="final" d="M1443 0h-182q0 -235 -261 -400q-231 -146 -481 -146q-405 0 -405 383q0 278 179 462q20 21 59 44l8 -12q0 -3 -55 -136t-55 -213q0 -273 366 -273q107 0 267 34q206 44 218 107q-7 12 -27 21.5t-146 58.5q-89 35 -138 70q-18 13 -16 20l31 124q12 46 290 82 q224 29 348 29v-255z" />
<glyph unicode="&#x64a;" horiz-adv-x="1399" arabic-form="final" d="M1443 0h-182q0 -235 -261 -400q-231 -146 -481 -146q-405 0 -405 383q0 278 179 462q20 21 59 44l8 -12q0 -3 -55 -136t-55 -213q0 -273 366 -273q107 0 267 34q206 44 218 107q-7 12 -27 21.5t-146 58.5q-89 35 -138 70q-18 13 -16 20l31 124q12 46 290 82 q224 29 348 29v-255z" />
<glyph unicode="&#x64a;" horiz-adv-x="573" arabic-form="initial" d="M482 305q0 -150 -113 -232q-100 -73 -256 -73h-157v255l53 -1q52 -2 95 -2q260 0 279 55q-14 68 -137 176l110 165q126 -175 126 -343zM552 -223l-78 -142l-181 89l81 141zM252 -255l-77 -143l-182 89l82 141z" />
<glyph unicode="&#x64a;" horiz-adv-x="706" arabic-form="medial" d="M744 0h-136q-102 0 -190 111q-116 -111 -296 -111h-166v255l53 -1q52 -2 95 -2q259 0 279 55q-14 68 -137 176l110 165q72 -111 95 -175q29 -80 31 -198q27 -21 133 -22q-68 1 -76 1q-8 1 43 1h162v-255zM569 -223l-77 -142l-181 89l81 141zM270 -255l-77 -143l-182 89 l82 141z" />
<glyph unicode="&#xd;" horiz-adv-x="455" />
<glyph unicode=" "  horiz-adv-x="455" />
<glyph unicode="&#x09;" horiz-adv-x="455" />
<glyph unicode="&#xa0;" horiz-adv-x="455" />
<glyph unicode="!" horiz-adv-x="458" d="M365 555q-8 -81 -34 -143q-17 -40 -42 -43q-30 0 -41 72l-13 90l-80 565q43 56 169 166q47 -131 47 -541q0 -109 -6 -166zM458 141l-117 -149l-191 140l123 145z" />
<glyph unicode="%" horiz-adv-x="1102" d="M410 844l-118 -149l-191 140l123 145zM1002 1072l-697 -1367h-183l697 1367h183zM1025 -71l-118 -149l-191 140l123 145z" />
<glyph unicode="(" horiz-adv-x="685" d="M685 -242l-102 -150q-439 331 -439 828q0 480 353 867l61 -61q-132 -150 -214 -353q-86 -211 -86 -403q0 -228 115 -421q112 -189 312 -307z" />
<glyph unicode=")" horiz-adv-x="676" d="M676 473q0 -474 -351 -863l-61 61q131 150 213 353q86 212 86 403q0 225 -114.5 419t-310.5 309l102 150q204 -152 318 -365q118 -220 118 -467z" />
<glyph unicode="*" horiz-adv-x="1071" d="M942 688q-84 -76 -214 -109q-5 -2 -9 -2q-6 0 -10 5q-5 2 -1 17q40 144 110 211q25 24 60 24q37 0 62 -25.5t25 -62.5t-23 -58zM709 859q1 -40 -23 -116q-20 -63 -52 -114q-8 -12 -15 -14q-6 0 -14 14q-67 116 -70 227q-1 36 25.5 59t63.5 24q33 1 59 -23t26 -57z M1071 487q1 -32 -23.5 -57.5t-56.5 -26.5q-27 -1 -83 13q-80 20 -149 61q-9 8 -11 15q0 6 11 14q124 70 228 70q82 0 84 -89zM709 490q1 -36 -25 -60.5t-62 -25.5t-61 24.5t-26 61.5t25 60.5t62 25.5q37 1 61.5 -24t25.5 -62zM966 233q1 -34 -27 -62q-23 -23 -62 -24 q-37 -1 -57 22q-78 89 -110 214q-3 14 2 20q5 3 18 1q77 -21 135 -54q99 -56 101 -117zM533 597q3 -12 0 -18q-3 -3 -11 -5l-9 2q-130 29 -211 112q-25 25 -25 59q-1 37 25.5 62t63.5 25q38 0 57 -21q77 -86 110 -216zM708 125q2 -82 -89 -84q-32 -1 -58 23.5t-27 56.5 q-1 39 23 117q18 59 52 114q7 11 15 12q7 0 14 -13q68 -120 70 -226zM496 487q0 -6 -14 -14q-124 -69 -226 -69q-82 0 -84 88q-1 32 23.5 58t56.5 27q27 1 83 -13q81 -20 147 -61q13 -8 14 -16zM536 381q-40 -140 -112 -209q-28 -27 -61 -27q-36 0 -60 26.5t-24 62.5t20 58 q82 74 217 110q20 3 20 -21z" />
<glyph unicode="+" horiz-adv-x="969" d="M880 294h-322v-322h-126v322h-321v127h321v320h126v-320h322v-127z" />
<glyph unicode="," horiz-adv-x="607" d="M205 159q0 73 47.5 126.5t120.5 53.5q112 0 170 -103q48 -85 48 -204q0 -112 -54 -224.5t-141 -187.5q-10 -6 -18 -6q-23 6 -23 27q0 -25 7 -25q16 0 69 125q76 179 76 225q0 52 -34 52q-20 0 -58 -10t-58 -10q-62 0 -107 49t-45 112z" />
<glyph unicode="-" horiz-adv-x="969" d="M880 294h-769v129h769v-129z" />
<glyph unicode="." horiz-adv-x="432" d="M432 134q0 -57 -39.5 -95.5t-96.5 -38.5q-56 0 -95.5 39t-39.5 95t39.5 96t95.5 40t96 -40t40 -96z" />
<glyph unicode="/" horiz-adv-x="678" d="M567 690l-322 -1162h-157l322 1162h157z" />
<glyph unicode="0" horiz-adv-x="1110" d="M760 332l-145 -201l-229 175l158 196z" />
<glyph unicode="&#x660;" horiz-adv-x="1110" d="M760 332l-145 -201l-229 175l158 196z" />
<glyph unicode="1" horiz-adv-x="1110" d="M731 33q0 -153 -95 -207q-13 67 -47 222q-90 384 -320 739l123 216q142 -200 237 -462q102 -281 102 -508z" />
<glyph unicode="&#x661;" horiz-adv-x="1110" d="M731 33q0 -153 -95 -207q-13 67 -47 222q-90 384 -320 739l123 216q142 -200 237 -462q102 -281 102 -508z" />
<glyph unicode="2" horiz-adv-x="1110" d="M909 926q0 -122 -71 -232q-80 -125 -195 -125q-21 0 -42 5q115 -307 115 -541q0 -50 -25 -120q-30 -84 -71 -87q-13 67 -46 222q-105 446 -352 757l93 196q174 -212 311 -212q85 0 138 47q29 26 65 93q30 56 53 66q27 -10 27 -69z" />
<glyph unicode="&#x662;" horiz-adv-x="1110" d="M909 926q0 -122 -71 -232q-80 -125 -195 -125q-21 0 -42 5q115 -307 115 -541q0 -50 -25 -120q-30 -84 -71 -87q-13 67 -46 222q-105 446 -352 757l93 196q174 -212 311 -212q85 0 138 47q29 26 65 93q30 56 53 66q27 -10 27 -69z" />
<glyph unicode="3" horiz-adv-x="1110" d="M838 628q-80 0 -135 56q-48 -112 -158 -112q-11 0 -22 1q113 -311 113 -540q0 -50 -25 -120q-30 -85 -70 -87q-13 67 -47 222q-105 446 -352 757l93 196q175 -212 311 -212q69 0 100 55q12 22 31 103q13 55 38 55q24 0 46.5 -85.5t69.5 -85.5q61 0 97 69q40 77 71 87 q29 -7 29 -56q0 -78 -57 -184q-64 -119 -133 -119z" />
<glyph unicode="&#x663;" horiz-adv-x="1110" d="M838 628q-80 0 -135 56q-48 -112 -158 -112q-11 0 -22 1q113 -311 113 -540q0 -50 -25 -120q-30 -85 -70 -87q-13 67 -47 222q-105 446 -352 757l93 196q175 -212 311 -212q69 0 100 55q12 22 31 103q13 55 38 55q24 0 46.5 -85.5t69.5 -85.5q61 0 97 69q40 77 71 87 q29 -7 29 -56q0 -78 -57 -184q-64 -119 -133 -119z" />
<glyph unicode="4" horiz-adv-x="1110" d="M968 779q0 -102 -117 -168q-98 -55 -208 -55q-47 0 -86 12q112 -304 112 -535q0 -50 -25 -120q-30 -85 -70 -87q-13 67 -47 222q-105 446 -352 757l91 193q44 -37 165 -170q0 115 75 195t189 80q53 0 111 -28q70 -34 70 -79q0 -38 -45 -38q-18 0 -53.5 5t-53.5 5 q-60 0 -102 -33q-45 -37 -45 -95q0 -100 150 -100q50 0 130.5 43.5t81.5 43.5q29 0 29 -48z" />
<glyph unicode="&#x664;" horiz-adv-x="1110" d="M968 779q0 -102 -117 -168q-98 -55 -208 -55q-47 0 -86 12q112 -304 112 -535q0 -50 -25 -120q-30 -85 -70 -87q-13 67 -47 222q-105 446 -352 757l91 193q44 -37 165 -170q0 115 75 195t189 80q53 0 111 -28q70 -34 70 -79q0 -38 -45 -38q-18 0 -53.5 5t-53.5 5 q-60 0 -102 -33q-45 -37 -45 -95q0 -100 150 -100q50 0 130.5 43.5t81.5 43.5q29 0 29 -48z" />
<glyph unicode="5" horiz-adv-x="1110" d="M975 139q0 -103 -60 -198q-68 -107 -165 -107q-112 0 -175 77q-69 -77 -177 -77q-99 0 -156 80q-52 72 -52 174q0 265 245 699l-37 47l128 204q449 -522 449 -798v-101zM864 149q0 111 -133 292q-61 83 -217 256q-193 -373 -193 -519q0 -131 96 -131q105 0 195 129 q76 -129 151 -129q101 0 101 102z" />
<glyph unicode="&#x665;" horiz-adv-x="1110" d="M975 139q0 -103 -60 -198q-68 -107 -165 -107q-112 0 -175 77q-69 -77 -177 -77q-99 0 -156 80q-52 72 -52 174q0 265 245 699l-37 47l128 204q449 -522 449 -798v-101zM864 149q0 111 -133 292q-61 83 -217 256q-193 -373 -193 -519q0 -131 96 -131q105 0 195 129 q76 -129 151 -129q101 0 101 102z" />
<glyph unicode="6" horiz-adv-x="1110" d="M908 470q-388 -127 -619 -612q-23 -48 -51 -48q-33 0 -33 50q0 118 85 291q79 160 170 254q-215 44 -215 235q0 119 129 257t248 138q67 0 142 -51q82 -56 82 -119q0 -40 -40 -40q-32 0 -94 14.5t-94 14.5q-74 0 -138 -40q-74 -46 -74 -116q0 -111 203 -111q59 0 196 67 t151 67q26 0 26 -27q0 -10 -74 -224z" />
<glyph unicode="&#x666;" horiz-adv-x="1110" d="M908 470q-388 -127 -619 -612q-23 -48 -51 -48q-33 0 -33 50q0 118 85 291q79 160 170 254q-215 44 -215 235q0 119 129 257t248 138q67 0 142 -51q82 -56 82 -119q0 -40 -40 -40q-32 0 -94 14.5t-94 14.5q-74 0 -138 -40q-74 -46 -74 -116q0 -111 203 -111q59 0 196 67 t151 67q26 0 26 -27q0 -10 -74 -224z" />
<glyph unicode="7" horiz-adv-x="1110" d="M1054 811q-168 -184 -354 -781q-11 -39 -35 -116q-32 -96 -59 -96q-19 0 -50 93q-12 39 -37 117q-171 517 -424 796q44 78 119 182q102 -57 236 -366q96 -221 157 -432q45 171 154 427q134 315 219 372q15 -14 74 -196z" />
<glyph unicode="&#x667;" horiz-adv-x="1110" d="M1054 811q-168 -184 -354 -781q-11 -39 -35 -116q-32 -96 -59 -96q-19 0 -50 93q-12 39 -37 117q-171 517 -424 796q44 78 119 182q102 -57 236 -366q96 -221 157 -432q45 171 154 427q134 315 219 372q15 -14 74 -196z" />
<glyph unicode="8" horiz-adv-x="1110" d="M1057 -3q-19 -32 -57.5 -97t-63.5 -85q-101 56 -236 366q-97 223 -157 432q-42 -159 -157 -433q-142 -336 -216 -368q-16 14 -72 199q168 193 352 780q11 39 35 116q32 95 59 95q19 0 50 -93q12 -39 36 -116q179 -529 427 -796z" />
<glyph unicode="&#x668;" horiz-adv-x="1110" d="M1057 -3q-19 -32 -57.5 -97t-63.5 -85q-101 56 -236 366q-97 223 -157 432q-42 -159 -157 -433q-142 -336 -216 -368q-16 14 -72 199q168 193 352 780q11 39 35 116q32 95 59 95q19 0 50 -93q12 -39 36 -116q179 -529 427 -796z" />
<glyph unicode="9" horiz-adv-x="1110" d="M960 39q-15 -40 -46 -120q-36 -90 -58 -105q-18 10 -43 43q-188 246 -242 636q-75 -97 -160 -97q-98 0 -160 74q-59 71 -59 170q0 98 67 213q75 128 164 128q106 0 165 -72q52 -63 96 -234q66 -253 89 -317q70 -193 187 -319zM539 668q-13 117 -101 117q-41 0 -91 -44.5 t-50 -84.5q0 -65 125 -65q68 0 117 77z" />
<glyph unicode="&#x669;" horiz-adv-x="1110" d="M960 39q-15 -40 -46 -120q-36 -90 -58 -105q-18 10 -43 43q-188 246 -242 636q-75 -97 -160 -97q-98 0 -160 74q-59 71 -59 170q0 98 67 213q75 128 164 128q106 0 165 -72q52 -63 96 -234q66 -253 89 -317q70 -193 187 -319zM539 668q-13 117 -101 117q-41 0 -91 -44.5 t-50 -84.5q0 -65 125 -65q68 0 117 77z" />
<glyph unicode=":" horiz-adv-x="491" d="M475 595l-118 -149l-191 140l124 145zM475 140l-118 -149l-191 140l124 145z" />
<glyph unicode="=" horiz-adv-x="1053" d="M965 447h-852v139h852v-139zM965 131h-852v139h852v-139z" />
<glyph unicode="[" horiz-adv-x="697" d="M217 -604l2 2065h407v-120h-281l-2 -1825h283v-120h-409z" />
<glyph unicode="]" horiz-adv-x="697" d="M217 -604v120h284l-2 1825h-282v120h407l2 -2065h-409z" />
<glyph unicode="{" horiz-adv-x="906" d="M736 -597q-178 32 -290 141q-121 120 -121 294q0 69 31 199q23 96 23 126q0 111 -84 186q-77 68 -192 80v42q276 59 276 247q0 48 -19 136q-30 138 -30 212q0 175 118 293q111 112 288 138v-44q-109 -14 -181 -80q-78 -71 -78 -177q0 -49 15 -128q34 -178 34 -237 q0 -253 -330 -379q326 -130 326 -394q0 -58 -30 -201q-20 -96 -20 -151q0 -203 264 -261v-42z" />
<glyph unicode="}" horiz-adv-x="841" d="M133 -593q177 29 288 141q120 119 120 293q0 77 -28 199q-24 105 -24 126q0 110 85 185q77 68 191 81v42q-276 58 -276 247q0 59 17 136q33 149 33 211q0 175 -118 294q-111 111 -288 140v-46q110 -17 179 -80q78 -70 78 -176q0 -62 -13 -129q-37 -191 -37 -237 q0 -252 332 -377q-328 -132 -328 -394q0 -49 33 -201q19 -87 19 -153q0 -203 -263 -262v-40z" />
<glyph unicode="&#xab;" horiz-adv-x="707" d="M724 62q0 -32 -42 -32q-93 0 -158 141q-54 118 -54 224q0 108 53 224q64 141 159 141q42 0 42 -32q0 80 -50.5 -100t-50.5 -233q0 -115 101 -333zM415 62q0 -32 -42 -32q-93 0 -158 141q-54 118 -54 224t54 224q64 141 158 141q42 0 42 -32q0 80 -50.5 -100t-50.5 -233 q0 -115 101 -333z" />
<glyph unicode="&#xb7;" horiz-adv-x="455" d="M225 580q-86 0 -86 93q0 95 86 95q84 0 84 -95q0 -38 -23.5 -65.5t-60.5 -27.5z" />
<glyph unicode="&#x2d9;" horiz-adv-x="455" d="M225 580q-86 0 -86 93q0 95 86 95q84 0 84 -95q0 -38 -23.5 -65.5t-60.5 -27.5z" />
<glyph unicode="&#xbb;" horiz-adv-x="723" d="M723 395q0 -107 -54 -224q-65 -141 -158 -141q-43 0 -43 32q0 -80 50.5 100.5t50.5 232.5q0 117 -101 333q0 32 43 32q92 0 157 -141q55 -119 55 -224zM414 395q0 -106 -54 -224q-64 -141 -158 -141q-42 0 -42 32q0 -80 50.5 100.5t50.5 232.5q0 117 -101 333q0 32 42 32 q93 0 158 -141q54 -117 54 -224z" />
<glyph unicode="&#xd7;" horiz-adv-x="935" d="M846 83l-93 -90l-276 275l-278 -278l-88 92l274 277l-272 276l87 92l276 -277l275 276l93 -89l-276 -277z" />
<glyph unicode="&#xf7;" horiz-adv-x="1141" d="M996 366h-905v109h905v-109zM550 841q46 0 79 -32.5t33 -78.5q0 -45 -32.5 -77t-77.5 -32q-47 0 -79 31t-32 78q0 46 31.5 78.5t77.5 32.5zM550 202q46 0 79 -31.5t33 -77.5q0 -45 -32.5 -76t-77.5 -31q-47 0 -79 30t-32 77q0 46 31.5 77.5t77.5 31.5z" />
<glyph unicode="&#x60c;" horiz-adv-x="455" d="M455 163q-11 -17 -144 -172q-81 73 -101 98q-49 62 -49 127q0 73 35 145q22 44 69 109q58 79 85 79q21 0 21 -33q0 -20 -30 -86.5t-30 -103.5q0 -77 144 -163z" />
<glyph unicode="&#x61b;" horiz-adv-x="476" d="M455 615q-31 -41 -144 -169q-79 70 -101 96q-49 60 -49 126t64 194q69 139 125 139q21 0 21 -33q0 -22 -30 -87.5t-30 -102.5q0 -77 144 -163zM476 147l-117 -149l-191 140l123 145z" />
<glyph unicode="&#x61f;" horiz-adv-x="794" d="M770 1207l-97 -181q-108 64 -165 64q-75 0 -136 -33q-73 -40 -73 -109q0 -82 64 -125q55 -37 141 -37q88 0 164 40q29 -96 29 -217q0 -59 -19 -125q-24 -84 -64 -99q-20 0 -39 84l-24 110q-36 -4 -61 -4q-145 0 -237 95.5t-92 241.5q0 172 118 281q115 106 288 106 q142 0 203 -92zM794 142l-118 -149l-191 140l123 146z" />
<glyph unicode="&#x621;" horiz-adv-x="693" d="M489 105q-124 -38 -229 -122l-54 26q24 55 59 81q-60 28 -60 96q0 73 47 135q51 67 122 67q47 0 98 -44l-54 -101q-35 25 -57 25q-20 0 -39.5 -19t-19.5 -39q0 -28 48 -28q33 0 88 21q59 22 87 24l14 -12q-3 -16 -50 -110z" />
<glyph unicode="&#x622;" horiz-adv-x="645" d="M349 1231q-75 0 -129 31q-38 -91 -92 -116q-14 10 -14 33q0 48 26.5 120t57.5 105q90 -50 175 -50q75 0 168.5 44t91.5 44q14 -5 14 -15q0 -83 -112 -144q-96 -52 -186 -52zM502 256q0 -33 -39 -137q-37 -97 -60 -136q-34 181 -64 466l-50 468l177 221q36 -403 36 -882z " />
<glyph unicode="&#x623;" horiz-adv-x="415" d="M398 1274q-124 -38 -229 -122l-54 26q24 55 59 81q-60 28 -60 96q0 72 48 135q51 67 121 67q47 0 98 -44l-54 -101q-35 25 -57 25q-20 0 -39.5 -19t-19.5 -39q0 -28 48 -28q33 0 88 20q61 22 87 25l14 -12q-3 -16 -50 -110zM413 256q0 -33 -39 -137q-37 -97 -60 -136 q-34 181 -64 466l-50 468l177 221q36 -403 36 -882z" />
<glyph unicode="&#x624;" horiz-adv-x="875" d="M624 872q-125 -37 -230 -122l-53 26q23 55 59 81q-60 28 -60 96q0 72 47 135q51 67 121 67q48 0 98 -44l-53 -101q-35 26 -58 26q-20 0 -39.5 -19.5t-19.5 -39.5q0 -28 48 -28q34 0 89 20q61 23 86 26l15 -13q-4 -16 -50 -110zM874 209q0 -208 -106 -392 q-125 -217 -316 -217q-86 0 -207 77q-99 63 -174 143q140 -39 276 -39q117 0 228 86q104 80 154 193q-169 0 -247 27q-133 46 -133 182q0 124 74 257q85 153 199 153q111 0 188 -185q64 -153 64 -285zM734 296q-14 60 -58 109q-49 56 -105 56q-27 0 -58.5 -33t-31.5 -61 q0 -51 107 -65q29 -4 146 -6z" />
<glyph unicode="&#x625;" horiz-adv-x="415" d="M450 -414q-125 -37 -230 -122l-53 26q23 55 59 81q-60 28 -60 96q0 73 47 135q51 67 122 67q47 0 97 -44l-53 -101q-7 6 -65 6q-52 0 -52 -39q0 -28 48 -28q34 0 89 21q61 22 87 25l14 -13q-4 -16 -50 -110zM413 256q0 -33 -39 -137q-37 -97 -60 -136q-34 181 -64 466 l-50 468l177 221q36 -403 36 -882z" />
<glyph unicode="&#x626;" horiz-adv-x="1528" d="M1528 568l-116 -132q-28 120 -128 120q-204 0 -356 -216q-29 -41 -29 -65q0 -38 113 -55q195 -29 209 -33q113 -30 113 -99q0 -192 -291 -348q-255 -137 -466 -137q-405 0 -405 383q0 277 179 461q22 23 59 45l7 -12q0 -3 -55 -136.5t-55 -212.5q0 -273 367 -273 q105 0 272 36q215 46 215 110q0 17 -30 17q-375 0 -375 150q0 175 213.5 383.5t389.5 208.5q166 0 169 -195zM496 656q-125 -38 -230 -122l-53 26q23 55 58 81q-60 28 -60 96q0 71 48 134q52 68 121 68q48 0 98 -44l-53 -101q-8 5 -65 5q-52 0 -52 -38q0 -28 48 -28 q33 0 88 20q61 22 87 25l15 -12q-4 -16 -50 -110z" />
<glyph unicode="&#x627;" horiz-adv-x="413" d="M413 256q0 -33 -39 -137q-37 -97 -60 -136q-34 181 -64 466l-50 468l177 221q36 -403 36 -882z" />
<glyph unicode="&#x628;" horiz-adv-x="1343" d="M1343 255q0 -177 -276 -249q-169 -44 -419 -44q-209 0 -321 43q-173 66 -173 241q0 83 63 224q68 153 134 180l5 -7q-5 -30 -44 -115q-33 -72 -33 -120q0 -192 374 -192q219 0 375 19q199 24 216 72q-14 67 -136 176l110 165q125 -191 125 -393zM912 -299l-90 -167 l-212 105l96 165z" />
<glyph unicode="&#x62a;" horiz-adv-x="1343" d="M1343 255q0 -177 -276 -249q-169 -44 -419 -44q-209 0 -321 43q-173 66 -173 241q0 83 63 224q68 153 134 180l5 -7q-5 -30 -44 -115q-33 -72 -33 -120q0 -192 374 -192q219 0 375 19q199 24 216 72q-14 67 -136 176l110 165q125 -191 125 -393zM1040 831l-78 -142 l-181 89l81 141zM740 799l-76 -143l-182 90l82 141z" />
<glyph unicode="&#x62b;" horiz-adv-x="1343" d="M1343 255q0 -177 -276 -249q-169 -44 -419 -44q-209 0 -321 43q-173 66 -173 241q0 83 63 224q68 153 134 180l5 -7q-5 -30 -44 -115q-33 -72 -33 -120q0 -192 374 -192q219 0 375 19q199 24 216 72q-14 67 -136 176l110 165q125 -191 125 -393zM840 1041l-76 -143 l-158 77l82 141zM1040 831l-78 -142l-181 89l81 141zM740 799l-76 -143l-182 90l82 141z" />
<glyph unicode="&#x62c;" horiz-adv-x="1121" d="M1209 -509q-145 -289 -458 -289q-527 0 -527 471q0 169 67 323q72 167 200 259q-84 21 -135 21q-54 0 -112 -33q-64 -37 -93 -42l-9 12q17 101 102 185q89 90 187 90q87 0 257 -36.5t257 -36.5q91 0 246 22l-134 -238q-72 17 -141 17q-218 0 -370 -97 q-179 -114 -179 -319q0 -196 140 -279q109 -64 319 -64q126 0 383 34zM957 -143l-90 -168l-212 106l95 164z" />
<glyph unicode="&#x62d;" horiz-adv-x="1121" d="M1209 -509q-145 -289 -458 -289q-527 0 -527 471q0 169 67 323q72 167 200 259q-84 21 -135 21q-54 0 -112 -33q-64 -37 -93 -42l-9 12q17 101 102 185q89 90 187 90q87 0 257 -36.5t257 -36.5q91 0 246 22l-134 -238q-72 17 -141 17q-218 0 -370 -97 q-179 -114 -179 -319q0 -196 140 -279q109 -64 319 -64q126 0 383 34z" />
<glyph unicode="&#x62e;" horiz-adv-x="1121" d="M1209 -509q-145 -289 -458 -289q-527 0 -527 471q0 169 67 323q72 167 200 259q-84 21 -135 21q-54 0 -112 -33q-64 -37 -93 -42l-9 12q17 101 102 185q89 90 187 90q87 0 257 -36.5t257 -36.5q91 0 246 22l-134 -238q-72 17 -141 17q-218 0 -370 -97 q-179 -114 -179 -319q0 -196 140 -279q109 -64 319 -64q126 0 383 34zM768 822l-90 -167l-212 105l96 165z" />
<glyph unicode="&#x62f;" horiz-adv-x="841" d="M841 235q0 -99 -32 -138q-37 -45 -196 -74q-128 -23 -221 -23q-108 0 -151 21q-65 32 -65 127q0 43 20 122q22 88 47 107q14 -19 18 -60q3 -33 27 -45q35 -17 140 -17q258 0 282 52q-17 126 -154 338l124 212q65 -91 115 -299q46 -190 46 -323z" />
<glyph unicode="&#x630;" horiz-adv-x="849" d="M841 235q0 -99 -32 -138q-37 -45 -196 -74q-128 -23 -221 -23q-108 0 -151 21q-65 32 -65 127q0 43 20 122q22 88 47 107q14 -19 18 -60q3 -33 27 -45q35 -17 140 -17q258 0 282 52q-17 126 -154 338l124 212q65 -91 115 -299q46 -190 46 -323zM662 1150l-90 -168 l-212 106l95 164z" />
<glyph unicode="&#x631;" horiz-adv-x="800" d="M800 172q0 -323 -215 -474q-77 -54 -139 -54q-93 0 -209 60.5t-170 136.5q125 -25 194 -25q125 0 275 114q158 120 158 241q0 111 -203 271l127 184q86 -82 135 -209q47 -121 47 -245z" />
<glyph unicode="&#x632;" horiz-adv-x="800" d="M800 172q0 -323 -215 -474q-77 -54 -139 -54q-93 0 -209 60.5t-170 136.5q125 -25 194 -25q125 0 275 114q158 120 158 241q0 111 -203 271l127 184q86 -82 135 -209q47 -121 47 -245zM567 872l-90 -167l-212 105l96 165z" />
<glyph unicode="&#x633;" horiz-adv-x="1860" d="M1860 283q0 -277 -193 -277q-77 0 -153 24q-90 28 -132 77q-29 -48 -106 -79q-70 -28 -133 -28q-113 0 -173 47q0 -183 -174 -314q-159 -119 -349 -119q-139 0 -219 86t-80 226q0 59 50 195q55 150 99 154q13 -6 13 -22q0 -33 -24.5 -100t-24.5 -101q0 -183 232 -183 q136 0 213 34q87 39 160 144q19 27 19 51q0 49 -86 227l121 149q52 -119 80 -153q54 -66 152 -66q123 0 177 77q27 38 49 141q17 76 51 76q28 -10 28 -72q0 -24 -8 -71t-8 -71q0 -35 82 -61q64 -20 114 -20q130 0 130 41q0 104 -78 197l99 144q72 -100 72 -353z" />
<glyph unicode="&#x634;" horiz-adv-x="1859" d="M1860 283q0 -277 -193 -277q-77 0 -153 24q-90 28 -132 77q-29 -48 -106 -79q-70 -28 -133 -28q-113 0 -173 47q0 -183 -174 -314q-159 -119 -349 -119q-139 0 -219 86t-80 226q0 59 50 195q55 150 99 154q13 -6 13 -22q0 -33 -24.5 -100t-24.5 -101q0 -183 232 -183 q136 0 213 34q87 39 160 144q19 27 19 51q0 49 -86 227l121 149q52 -119 80 -153q54 -66 152 -66q123 0 177 77q27 38 49 141q17 76 51 76q28 -10 28 -72q0 -24 -8 -71t-8 -71q0 -35 82 -61q64 -20 114 -20q130 0 130 41q0 104 -78 197l99 144q72 -100 72 -353zM1462 1113 l-77 -143l-157 77l82 141zM1662 904l-78 -143l-181 89l81 141zM1362 871l-77 -143l-182 90l82 141z" />
<glyph unicode="&#x635;" horiz-adv-x="2088" d="M2088 385q0 -172 -159 -284q-143 -101 -323 -101h-463q-114 0 -173 47q0 -183 -174 -314q-159 -119 -349 -119q-139 0 -219 86t-80 226q0 62 49 195q55 150 100 154q13 -6 13 -22q0 -33 -24.5 -100t-24.5 -101q0 -183 232 -183q135 0 213 34q88 39 160 144q19 28 19 51 q0 49 -86 227l121 149q80 -141 92 -154q57 -65 161 -67l312 260q230 175 336 175t189 -100q78 -94 78 -203zM1941 346q0 51 -71 94q-63 38 -120 38q-94 0 -216 -78q-56 -36 -188 -145h186q183 0 233 5q176 17 176 86z" />
<glyph unicode="&#x636;" horiz-adv-x="2087" d="M2088 385q0 -172 -159 -284q-143 -101 -323 -101h-463q-114 0 -173 47q0 -183 -174 -314q-159 -119 -349 -119q-139 0 -219 86t-80 226q0 62 49 195q55 150 100 154q13 -6 13 -22q0 -33 -24.5 -100t-24.5 -101q0 -183 232 -183q135 0 213 34q88 39 160 144q19 28 19 51 q0 49 -86 227l121 149q80 -141 92 -154q57 -65 161 -67l312 260q230 175 336 175t189 -100q78 -94 78 -203zM1941 346q0 51 -71 94q-63 38 -120 38q-94 0 -216 -78q-56 -36 -188 -145h186q183 0 233 5q176 17 176 86zM1700 972l-89 -167l-212 105l95 164z" />
<glyph unicode="&#x637;" horiz-adv-x="1368" d="M1368 385q0 -179 -169 -290q-145 -95 -313 -95h-555q-54 0 -99.5 35t-76.5 102q-23 51 -24 75q-1 32 75 32h209q13 0 51 37q27 27 39 35q-23 188 -35 266l-32 212q-3 24 -12 87l178 221l20 -238q10 -119 10 -231q0 -139 -16 -240l107 85q146 116 212 155q92 54 164 55 q106 1 189 -99q78 -96 78 -204zM1221 346q1 50 -72 94q-65 38 -119 38q-116 0 -290 -129q-15 -11 -114 -94h157q168 0 230 4q87 6 124 15q83 21 84 72z" />
<glyph unicode="&#x638;" horiz-adv-x="1368" d="M1368 385q0 -172 -159 -284q-143 -101 -323 -101h-555q-71 0 -135.5 70.5t-64.5 141.5q0 38 145 38q38 0 89 -3l50 -3q20 9 48.5 35t41.5 37q-25 200 -79 565l178 221q30 -352 30 -469q0 -139 -16 -240l229 181q161 114 254 114q106 0 189 -100q78 -94 78 -203zM1221 346 q0 51 -72 94q-64 38 -119 38q-94 0 -216 -78q-61 -39 -188 -145h186q182 0 233 5q176 17 176 86zM1168 1011l-90 -167l-212 105l95 164z" />
<glyph unicode="&#x639;" horiz-adv-x="999" d="M1158 -508q-76 -150 -184 -219.5t-274 -69.5q-527 0 -527 471q0 383 232 559q-76 36 -133 111q-63 81 -63 159q0 131 75 242q84 124 208 124q70 0 180 -51q124 -57 132 -116l-13 -8q-23 0 -70 15t-72 15q-86 0 -181 -54q-109 -62 -109 -141q0 -52 77 -80q58 -21 121 -21 q68 0 443 137l-96 -240q-588 -183 -588 -524q0 -196 140 -279q109 -64 319 -64q126 0 383 34z" />
<glyph unicode="&#x63a;" horiz-adv-x="999" d="M1158 -508q-76 -150 -184 -219.5t-274 -69.5q-527 0 -527 471q0 383 232 559q-76 36 -133 111q-63 81 -63 159q0 131 75 242q84 124 208 124q70 0 180 -51q124 -57 132 -116l-13 -8q-23 0 -70 15t-72 15q-86 0 -181 -54q-109 -62 -109 -141q0 -52 77 -80q58 -21 121 -21 q68 0 443 137l-96 -240q-588 -183 -588 -524q0 -196 140 -279q109 -64 319 -64q126 0 383 34zM613 1144l-90 -167l-212 105l95 165z" />
<glyph unicode="&#x640;" horiz-adv-x="591" d="M625 0h-659v255h659v-255z" />
<glyph unicode="&#x641;" horiz-adv-x="1444" d="M1400 523q44 -132 44 -227q0 -192 -195 -266q-177 -68 -601 -68q-212 0 -322 43q-171 66 -172 241q-1 88 53 205q50 111 116 179q19 20 28 20q4 -1 5 -7q0 3 -49 -125q-28 -72 -28 -110q-2 -120 116 -159q90 -30 364 -31q175 -1 289 22q-5 12 -35 56q-44 64 -45 141 q-2 115 76 228q69 101 140 102q74 1 139 -89q47 -65 77 -155zM1324 271q7 13 7 35q0 67 -43 149q-49 93 -109 94q-34 1 -67.5 -36.5t-33.5 -71.5q-1 -52 122 -107q89 -40 124 -63zM1134 1017l-90 -168l-212 106l96 164z" />
<glyph unicode="&#x642;" horiz-adv-x="1189" d="M1189 184q0 -278 -168.5 -448t-446.5 -170q-180 0 -282 89q-108 94 -108 272q0 79 45 230q52 175 107 183q14 -6 14 -21q0 -28 -32 -111.5t-32 -129.5q0 -257 331 -257q150 0 286 66q166 81 166 213l-2 14q-92 -33 -181 -33q-210 0 -210 229q0 111 73 239q83 145 184 145 q125 0 199 -202q57 -156 57 -308zM1022 320q-12 53 -50 101q-44 56 -92 56q-40 0 -77 -37.5t-37 -78.5q0 -49 150 -49q64 0 106 8zM1063 953l-77 -142l-181 89l81 141zM764 921l-77 -143l-182 90l82 141z" />
<glyph unicode="&#x644;" horiz-adv-x="1049" d="M1049 31q0 -212 -174 -363q-166 -146 -381 -146q-140 0 -229 93t-89 234q0 78 45 230q52 176 108 183q13 -6 13 -21q0 -28 -31.5 -111.5t-31.5 -129.5q0 -106 79 -167q72 -56 181 -56q264 0 373 177q8 13 8 34q0 12 -6 65l-98 864l177 221q56 -667 56 -1107z" />
<glyph unicode="&#x645;" horiz-adv-x="868" d="M868 191q0 -40 -62 -146q-64 -109 -97 -109q-39 0 -123.5 20.5t-128.5 20.5q-180 0 -180 -70q0 -67 46.5 -224t46.5 -238q0 -53 -19 -120q-23 -79 -57 -102q-9 18 -13 81q-2 31 -6 91q-5 56 -66 256q-54 177 -54 225q0 51 54 141q66 109 137 146q66 35 198 35 q38 0 114 -12q0 38 -79 98t-119 60t-79.5 -32t-49.5 -33q-15 6 -15 20q0 56 82 137t138 81q94 0 213 -116t119 -210z" />
<glyph unicode="&#x646;" horiz-adv-x="1050" d="M731 579l-89 -167l-212 105l95 165zM1050 37q0 -213 -173 -367q-167 -148 -383 -148q-140 0 -229 93t-89 234q0 78 45 230q52 176 108 183q13 -6 13 -21q0 -28 -31.5 -111.5t-31.5 -129.5q0 -104 79 -166q72 -57 179 -57q109 0 213 38q136 49 154 135q-13 161 -126 294 l128 184q69 -65 108 -181q36 -105 36 -210z" />
<glyph unicode="&#x647;" horiz-adv-x="741" d="M741 349q0 -152 -92 -249q-93 -100 -244 -100q-250 0 -250 271q0 217 241 519q162 -47 252 -159q93 -116 93 -282zM628 343q0 67 -97 135q-83 58 -161 75q-87 -64 -87 -193q0 -128 122 -128q61 0 133 27q90 34 90 84z" />
<glyph unicode="&#x648;" horiz-adv-x="874" d="M874 209q0 -208 -106 -392q-125 -217 -316 -217q-86 0 -207 77q-99 63 -174 143q140 -39 276 -39q117 0 228 86q104 80 154 193q-169 0 -247 27q-133 46 -133 182q0 124 74 257q85 153 199 153q111 0 188 -185q64 -153 64 -285zM734 296q-14 60 -58 109q-49 56 -105 56 q-27 0 -58.5 -33t-31.5 -61q0 -51 107 -65q29 -4 146 -6z" />
<glyph unicode="&#x649;" horiz-adv-x="1528" d="M1528 568l-116 -132q-28 120 -128 120q-204 0 -356 -216q-29 -41 -29 -65q0 -38 113 -55q195 -29 209 -33q113 -30 113 -99q0 -192 -291 -348q-255 -137 -466 -137q-405 0 -405 383q0 277 179 461q22 23 59 45l7 -12q0 -3 -55 -136.5t-55 -212.5q0 -273 367 -273 q105 0 272 36q215 46 215 110q0 17 -30 17q-375 0 -375 150q0 175 213.5 383.5t389.5 208.5q166 0 169 -195z" />
<glyph unicode="&#x64b;" d="M423 1486l-38 -115l-303 -151l48 115zM423 1686l-38 -115l-303 -151l48 115z" />
<glyph unicode="&#x64c;" d="M516 1387l-100 -84q-50 5 -82 26q-140 -90 -293 -90l46 106q15 0 38 7q-21 34 -21 61q0 63 30 114l106 53q-40 -62 -40 -131q0 -43 24 -67l39 14q-28 38 -28 80q0 39 64 97.5t104 58.5q94 0 94 -111q0 -61 -60 -121zM393 1517l-6 24l-16 10q-34 -6 -44 -35q4 -30 36 -67 q30 23 30 68z" />
<glyph unicode="&#x64d;" d="M503 -1344l-38 -115l-303 -151l48 115zM503 -1144l-38 -115l-303 -151l48 115z" />
<glyph unicode="&#x64e;" d="M423 1486l-38 -115l-303 -151l48 115z" />
<glyph unicode="&#x64f;" d="M480 1387l-100 -84q-51 5 -83 26q-123 -79 -240 -79l43 105q84 21 126 40q-27 40 -27 81q0 39 63.5 97.5t103.5 58.5q95 0 95 -111q0 -61 -60 -121zM356 1510l-5 23l-17 10q-34 -6 -43 -35q4 -30 35 -67q30 23 30 69z" />
<glyph unicode="&#x650;" d="M513 -1094l-38 -115l-303 -151l48 115z" />
<glyph unicode="&#x651;" d="M403 1441q0 -54 -32 -101q-36 -51 -88 -51q-14 0 -29 4q-53 -82 -110 -82q-40 0 -65 29t-25 70q0 35 20 87q24 62 54 62q21 0 21 -34q0 -10 -4.5 -30t-4.5 -30l5 -21l14 -6q26 0 42 86t47 86q22 0 29 -24l6 -43l12 -9q29 10 37 79q7 64 25 64q23 0 36 -59q10 -44 10 -77z " />
<glyph unicode="&#x652;" d="M377 1461q0 -56 -28 -97q-31 -46 -85 -46q-121 0 -121 145q0 44 31 93q34 54 75 54q56 0 93 -48q35 -44 35 -101zM317 1450q-25 56 -80 56q-38 0 -38 -37q0 -39 47 -39q50 0 71 20z" />
<glyph unicode="&#x67e;" horiz-adv-x="1343" d="M1343 255q0 -177 -276 -249q-169 -44 -419 -44q-209 0 -321 43q-173 66 -173 241q0 83 63 224q68 153 134 180l5 -7q-5 -30 -44 -115q-33 -72 -33 -120q0 -192 374 -192q219 0 375 19q199 24 216 72q-14 67 -136 176l110 165q125 -191 125 -393zM1035 -224l-83 -141 l-176 88l76 143zM735 -256l-81 -141l-178 87l78 142zM910 -453l-82 -141l-152 75l77 143z" />
<glyph unicode="&#x686;" horiz-adv-x="1121" d="M1054 -60l-67 -124l-158 94l72 123zM938 -273l-68 -124l-131 80l72 123zM749 -98l-67 -124l-158 94l72 124zM1209 -509q-145 -289 -458 -289q-527 0 -527 471q0 169 67 323q72 167 200 259q-84 21 -135 21q-54 0 -112 -33q-64 -37 -93 -42l-9 12q17 101 102 185 q89 90 187 90q87 0 257 -36.5t257 -36.5q91 0 246 22l-134 -238q-72 17 -141 17q-218 0 -370 -97q-179 -114 -179 -319q0 -196 140 -279q109 -64 319 -64q126 0 383 34z" />
<glyph unicode="&#x698;" horiz-adv-x="800" d="M800 172q0 -323 -215 -474q-77 -54 -139 -54q-93 0 -209 60.5t-170 136.5q125 -25 194 -25q125 0 275 114q158 120 158 241q0 111 -203 271l127 184q86 -82 135 -209q47 -121 47 -245zM563 1113l-77 -143l-157 77l82 141zM763 904l-78 -143l-181 89l81 141zM463 871 l-77 -143l-182 90l82 141z" />
<glyph unicode="&#x6af;" horiz-adv-x="1581" d="M1555 1278l-39 -97q-117 -22 -304 -99q-197 -81 -282 -146l9 75q6 51 279 157q245 95 337 110zM1581 1081l-94 -220q-79 -10 -214 -55q-150 -50 -193 -91q156 -47 271 -142q143 -118 143 -257q0 -238 -326 -313q-157 -36 -520 -36q-212 0 -321 42q-173 66 -173 242 q0 83 63 224q68 152 134 180l5 -8q-5 -31 -44 -115q-33 -71 -33 -119q0 -192 374 -192h57q13 0 30 1h19q127 0 301 15q303 26 303 75q0 133 -482 286l33 181q60 66 316 179q249 110 351 123z" />
<glyph unicode="&#x200c;" horiz-adv-x="45" />
<glyph unicode="&#x200d;" horiz-adv-x="45" />
<glyph unicode="&#x200e;" horiz-adv-x="36" d="M241 1282l-107 -109l-27 23l70 70h-141v-1266h-36v1300h173l-66 66l27 25z" />
<glyph unicode="&#x200f;" horiz-adv-x="36" d="M36 0h-36v1266h-141l68 -70l-22 -23l-112 109l112 109l22 -25l-66 -66h175v-1300z" />
<glyph unicode="&#x2018;" horiz-adv-x="546" d="M518 1650q-100 -68 -170 -161q-84 -111 -84 -214q0 -61 34 -109q43 52 100 52q113 0 113 -111q0 -67 -52 -104q-47 -32 -116 -32q-92 0 -148 56t-56 148q0 156 120 314q108 142 259 220v-59z" />
<glyph unicode="&#x2019;" horiz-adv-x="546" d="M493 1503q0 -163 -117 -314q-100 -128 -260 -221v62q255 179 255 375q0 68 -39 111q-36 -52 -105 -52q-46 0 -77.5 30.5t-31.5 76.5q0 65 55 103q48 33 116 33q95 0 149.5 -54.5t54.5 -149.5z" />
<glyph unicode="&#x201c;" horiz-adv-x="721" d="M634 1273q-13 -7 -45 -30q-57 -56 -57 -106q91 -23 91 -123q0 -51 -35 -87t-86 -36q-57 0 -93 47q-32 42 -32 101q0 223 225 398q0 -91 3 -103q4 -45 29 -61zM334 1273q-13 -7 -45 -30q-57 -56 -57 -106q91 -23 91 -123q0 -51 -35 -87t-86 -36q-57 0 -93 47 q-32 42 -32 101q0 223 225 398q0 -91 3 -103q4 -45 29 -61z" />
<glyph unicode="&#x201d;" horiz-adv-x="721" d="M643 1278q0 -223 -225 -398v102q0 44 -32 61q14 7 46 30q57 57 57 107q-91 23 -91 123q0 52 34 87t86 35q125 0 125 -147zM343 1278q0 -223 -225 -398v102q0 44 -32 61q14 7 46 30q57 57 57 107q-91 23 -91 123q0 51 34.5 86.5t85.5 35.5q125 0 125 -147z" />
<glyph unicode="&#x2039;" horiz-adv-x="418" d="M415 62q0 -32 -42 -32q-93 0 -158 141q-54 118 -54 224t54 224q64 141 158 141q42 0 42 -32q0 80 -50.5 -100t-50.5 -233q0 -115 101 -333z" />
<glyph unicode="&#x203a;" horiz-adv-x="726" d="M723 395q0 -107 -54 -224q-65 -141 -158 -141q-43 0 -43 32q0 -80 50.5 100.5t50.5 232.5q0 117 -101 333q0 32 43 32q92 0 157 -141q55 -119 55 -224z" />
<glyph unicode="&#xe000;" horiz-adv-x="500" d="M0 0v0v0v0v0z" />
<glyph unicode="&#xe820;" d="M432 1034l-38 -116l-303 -151l48 116z" />
<glyph unicode="&#xe821;" d="M498 976l-100 -84q-51 4 -82 25q-124 -79 -241 -79l43 106q84 21 127 40q-28 39 -28 81q0 39 63.5 97t103.5 58q95 0 95 -111q0 -61 -60 -121zM374 1098l-5 23l-17 10q-34 -6 -43 -34q4 -31 36 -68q29 24 29 69z" />
<glyph unicode="&#xe822;" d="M350 1032q0 -57 -28 -97q-32 -46 -86 -46q-120 0 -120 144q0 44 31 93q33 54 75 54q56 0 92 -45.5t36 -102.5zM289 1020q-25 56 -79 56q-38 0 -38 -37q0 -38 47 -38q50 0 70 19z" />
<glyph unicode="&#xe823;" d="M423 1136l-38 -115l-303 -151l48 115zM423 1336l-38 -115l-303 -151l48 115z" />
<glyph unicode="&#xe824;" d="M571 971l-100 -84q-51 5 -82 26q-140 -90 -293 -90l45 106q16 0 39 7q-21 34 -21 61q0 63 30 114l105 52q-40 -61 -40 -130q0 -43 25 -67l39 14q-28 38 -28 80q0 39 63.5 97.5t103.5 58.5q95 0 95 -111q0 -61 -60 -121zM447 1101l-5 24l-17 10q-34 -6 -43 -35 q4 -30 36 -67q29 23 29 68z" />
<glyph unicode="&#xe825;" d="M403 993q0 -54 -32 -101q-36 -51 -88 -51q-14 0 -29 4q-53 -82 -110 -82q-40 0 -65 29t-25 70q0 36 20 88q23 61 54 61q21 0 21 -34q0 -10 -4.5 -30t-4.5 -30l5 -21l14 -6q26 0 42 86t47 86q22 0 29 -24l6 -43l12 -9q29 10 37 79q7 64 25 64q23 0 36 -58q10 -44 10 -78z " />
<glyph unicode="&#xe826;" d="M503 -434l-38 -115l-303 -151l48 115z" />
<glyph unicode="&#xe827;" d="M503 -654l-38 -115l-303 -151l48 115zM503 -454l-38 -115l-303 -151l48 115z" />
<glyph unicode="&#xe828;" d="M417 1013q0 -54 -32 -101q-36 -51 -88 -51q-14 0 -29 5q-53 -82 -110 -82q-40 0 -65 28.5t-25 69.5q0 38 19 88q23 61 54 61q21 0 21 -33q0 -12 -4 -30q-4 -23 -5 -30l6 -21l13 -7q27 0 42.5 86t46.5 86q27 0 36 -66l12 -9q29 10 36 79q7 64 26 64q22 0 36 -59 q10 -43 10 -78zM377 1377l-37 -115l-303 -151l47 115z" />
<glyph unicode="&#xe829;" d="M413 1030q0 -54 -32 -101q-36 -51 -88 -51q-14 0 -29 4q-53 -82 -109 -82q-40 0 -65 29t-25 70q0 37 19 88q23 61 54 61q21 0 21 -34q0 -11 -4 -30q-4 -23 -5 -30l6 -21l13 -6q26 0 42 86t47 86q22 0 29 -24l6 -43l13 -9q29 10 36 79q7 64 26 64q22 0 35 -58 q10 -44 10 -78zM396 1356l-100 -84q-50 4 -82 26q-124 -79 -241 -79l44 105q83 21 126 40q-27 40 -27 81q0 39 63.5 97.5t103.5 58.5q95 0 95 -111q0 -61 -60 -121zM273 1479l-5 23l-17 10q-34 -6 -43 -35q4 -30 35 -67q30 23 30 69z" />
<glyph unicode="&#xe82a;" d="M401 1521l-38 -116l-303 -151l48 116zM401 1354l-38 -115l-303 -151l48 115zM403 1009q0 -54 -32 -101q-36 -51 -88 -51q-14 0 -29 4q-53 -82 -110 -82q-40 0 -65 29t-25 70q0 35 20 87q24 62 54 62q21 0 21 -34q0 -10 -4.5 -30t-4.5 -30l5 -21l14 -6q26 0 42 86t47 86 q22 0 29 -24l6 -43l12 -9q29 10 37 79q7 64 25 64q23 0 36 -58q10 -44 10 -78z" />
<glyph unicode="&#xe82b;" d="M483 1356l-100 -84q-51 4 -82 25q-140 -90 -293 -90l45 107q16 0 39 7q-21 34 -21 61q0 63 30 114l105 52q-40 -61 -40 -131q0 -42 25 -66l39 14q-28 38 -28 80q0 39 64 97t104 58q94 0 94 -111q0 -61 -60 -121zM403 1054q0 -54 -32 -101q-36 -51 -88 -51q-14 0 -29 5 q-53 -82 -110 -82q-39 0 -64.5 29t-25.5 69q0 36 20 88q24 61 54 61q21 0 21 -33q0 -10 -4.5 -30t-4.5 -30l5 -21l14 -7q26 0 42 86t47 86q22 0 29 -24l6 -42l12 -9q26 9 37 78q10 65 25 65q23 0 36 -59q10 -44 10 -78zM360 1486l-6 23l-17 10q-34 -6 -43 -34q4 -31 36 -68 q30 24 30 69z" />
<glyph unicode="&#xe82c;" d="M403 1254q0 -54 -32 -101q-36 -51 -88 -51q-14 0 -29 4q-53 -82 -110 -82q-39 0 -64.5 29.5t-25.5 69.5q0 36 20 88q23 61 54 61q21 0 21 -33q0 -10 -4.5 -30t-4.5 -30l5 -21l14 -7q26 0 42 86t47 86q22 0 29 -24l6 -43l12 -9q26 10 37 79q10 65 25 65q23 0 36 -59 q10 -44 10 -78zM401 1067l-38 -116l-303 -151l48 116z" />
<glyph unicode="&#xe82d;" d="M403 1421q0 -54 -32 -101q-36 -51 -88 -51q-14 0 -29 4q-53 -82 -110 -82q-40 0 -65 29t-25 70q0 35 20 87q24 61 54 61q21 0 21 -33q0 -10 -4.5 -30t-4.5 -30l5 -21l14 -7q26 0 42 86t47 86q22 0 29 -23l6 -43l12 -9q29 10 37 79q7 64 25 64q23 0 36 -59q10 -44 10 -77z M401 1233l-38 -115l-303 -151l48 115zM401 1067l-38 -116l-303 -151l48 116z" />
<glyph horiz-adv-x="1" d="M577 891l77 -77l-3 -305l-73 85z" />
</font>
</defs>
</svg>
