<?xml version="1.0" standalone="no"?>
<!DOCTYPE svg PUBLIC "-//W3C//DTD SVG 1.1//EN" "http://www.w3.org/Graphics/SVG/1.1/DTD/svg11.dtd" >
<svg xmlns="http://www.w3.org/2000/svg">
<metadata></metadata>
<defs>
<font id="entezar_____-------posterfont" horiz-adv-x="0" >
<font-face units-per-em="2048" ascent="1638" descent="-410" />
<missing-glyph horiz-adv-x="401" />
<glyph unicode="&#x651;&#x64b;" d="M508 1613q-8 -57 -39 -99q-37 -50 -89 -50q-48 0 -95 47q-43 -97 -127 -97q-48 0 -77 38q-27 34 -27 83q0 121 54 121q10 0 29 -59.5t34 -59.5q48 0 79 74.5t38 74.5q13 0 33.5 -52.5t63.5 -52.5q51 0 51 68q0 27 -8 61l67 35q24 -49 13 -132zM482 1950l-14 -95 l-394 -131l14 95zM482 2127l-14 -95l-394 -131l14 95z" />
<glyph unicode="&#x651;&#x64c;" arabic-form="isolated" d="M513 1548q-8 -57 -39 -99q-37 -50 -89 -50q-48 0 -95 48q-43 -98 -127 -98q-48 0 -77 38q-27 34 -27 83q0 121 54 121q10 0 29 -59.5t34 -59.5q48 0 79 74.5t38 74.5q13 0 33.5 -52t63.5 -52q51 0 51 68q0 26 -8 60l67 35q24 -48 13 -132zM496 2002q0 -82 -59 -144 q12 -8 51 -22l-27 -89q-58 14 -99 48q-124 -101 -244 -117q-51 6 -54 52q23 7 87 32q8 29 3 59q-6 34 -27 34q-9 0 -28 -21.5t-29 -21.5q-31 0 1 67q27 58 73 58q71 0 71 -102q0 -23 -4 -50q50 25 90 57q-38 39 -38 88q0 47 66 110q55 53 92 53q75 0 75 -91zM395 2010 q-18 0 -40 -17.5t-22 -35.5q0 -14 17.5 -36.5t30.5 -22.5q18 0 34 32q15 28 15 48q0 32 -35 32z" />
<glyph unicode="&#x651;&#x64d;" arabic-form="isolated" d="M524 1969q-8 -60 -41 -104q-38 -53 -94 -53q-50 0 -99 51q-45 -103 -134 -103q-50 0 -79.5 38t-29.5 89q0 127 57 127q10 0 30 -62.5t36 -62.5q51 0 83.5 78t39.5 78q14 0 35 -54.5t67 -54.5q53 0 53 72q0 27 -8 63l70 36q26 -50 14 -138zM506 1570l-15 -100l-412 -137 l14 100zM506 1756l-15 -100l-412 -138l14 99z" />
<glyph unicode="&#x651;&#x64e;" arabic-form="isolated" d="M536 1598q-8 -57 -39 -99q-37 -50 -89 -50q-48 0 -95 48q-43 -98 -127 -98q-48 0 -77 38q-27 34 -27 83q0 121 54 121q10 0 29 -59.5t34 -59.5q48 0 79 74.5t38 74.5q13 0 33.5 -52t63.5 -52q51 0 51 68q0 26 -8 60l67 35q24 -48 13 -132zM504 1980l-14 -95l-393 -131 l14 95z" />
<glyph unicode="&#x651;&#x64f;" arabic-form="isolated" d="M496 1505q-8 -57 -39 -99q-37 -50 -89 -50q-48 0 -95 47q-43 -97 -127 -97q-48 0 -77 38q-27 34 -27 83q0 121 54 121q10 0 29 -59.5t34 -59.5q48 0 79 74.5t38 74.5q13 0 33.5 -52.5t63.5 -52.5q51 0 51 68q0 27 -8 61l67 35q24 -49 13 -132zM459 1948q0 -82 -59 -143 q12 -9 51 -23l-27 -88q-58 14 -99 47q-124 -100 -244 -117q-51 7 -54 52q164 55 237 113q-38 38 -38 87q0 45 56.5 104t101.5 59q75 0 75 -91zM379 1952q-11 4 -21 4q-19 0 -40.5 -17t-21.5 -36q0 -15 17 -36.5t31 -21.5q18 0 34 32q14 27 14 48q0 20 -13 27z" />
<glyph unicode="&#x651;&#x650;" arabic-form="isolated" d="M531 1868q-8 -60 -40 -104q-39 -52 -94 -52q-51 0 -100 50q-45 -103 -133 -103q-50 0 -81 40q-28 36 -28 87q0 127 56 127q10 0 30.5 -62.5t35.5 -62.5q51 0 83.5 78.5t39.5 78.5q14 0 35.5 -55t66.5 -55q54 0 54 72q0 27 -9 63l71 37q25 -50 13 -139zM513 1672l-14 -100 l-413 -138l15 99z" />
<glyph unicode="&#xfedf;&#xfee0;&#xfeea;" horiz-adv-x="1595" arabic-form="isolated" d="M996 1326q0 -36 -11 -81q-15 -61 -38 -61q-19 0 -24 39q-10 73 -13 84q-7 24 -27 68q-14 31 -14 53q0 23 46 38q36 12 64 12q17 -55 17 -152zM1162 1054q0 -56 -36 -101q-38 -48 -93 -48t-106 61q-48 -69 -114 -69q-47 0 -79 48q-30 43 -30 92q0 110 55 110 q7 0 28.5 -58.5t37.5 -58.5q48 0 79.5 55.5t39.5 55.5q13 0 29 -58.5t58 -58.5q58 0 58 67q0 20 -6 47l60 31q19 -36 19 -115zM1634 349q0 -213 -120 -302q-78 -58 -195 -58q-166 0 -301 212q-62 -201 -288 -201q-210 0 -283 270q-38 -39 -101 -88q-25 -9 -65 -9 q-96 0 -180 43q-98 50 -98 125q0 93 100 168q58 44 264 144l-12 85l138 98q32 23 43 23q16 0 22 -45q9 -68 32 -244q37 -267 190 -267q139 0 139 135q0 58 -61 305q-10 41 135 137q33 22 39 -8q56 -274 126 -444q53 -130 165 -130q130 0 130 132q0 84 -101 427l139 148 q10 11 18 11q10 0 18 -25q107 -354 107 -642zM426 346l-36 211q-89 -28 -157 -75q-55 -38 -55 -52q0 -26 61 -52q74 -32 187 -32z" />
<glyph unicode="&#xfedf;&#xfe82;" horiz-adv-x="809" arabic-form="isolated" d="M885 1080q16 -20 16 -31q0 -21 -94 -26q2 -32 2 -60q0 -316 -223 -519q51 -71 51 -184q0 -180 -179 -247q-113 -42 -330 -42q-79 0 -79 46q0 11 4 26q14 50 82 243q52 12 153 62q108 53 150 94q-180 267 -370 434q-40 -78 -61 -78q-27 -3 -159 219q28 93 72 185 q34 71 55 71q15 0 43 -27q367 -350 523 -689q84 111 75 300q-6 125 -60 255l100 152q24 37 41 37q15 0 39 -31zM530 274q0 30 -43 89q-54 -41 -252 -145q28 -3 64 -3q231 0 231 59zM527 1512q-68 -70 -212 -120q-134 -47 -242 -47q-39 0 -115.5 13t-115.5 13 q-21 0 -50.5 -22t-44.5 -22q-21 0 -21 25q0 38 39 110q49 90 146 90q39 0 120.5 -18.5t122.5 -18.5q199 0 356 35q32 7 32 -12q0 -10 -15 -26z" />
<glyph unicode="&#xfee0;&#xfe82;" horiz-adv-x="984" arabic-form="final" d="M1012 1h-84q-204 0 -206 421q0 -16 1 51q0 77 1 207q0 19 -1 51q-63 -196 -142 -384q-104 -249 -167 -307q-51 -47 -220 -63q-105 -10 -169 -10q-132 0 -132 35q0 29 72 61q57 25 224 114q213 113 220 178q5 41 -36 124q-69 140 -221 259q-87 68 -290 185q-22 13 -19 43 l24 237q4 35 17 35q9 0 33 -17q120 -84 305 -131q57 -14 57 -34q0 -25 -99 -69q121 -98 206 -255.5t101 -312.5q182 266 246 835q7 66 47 66q37 0 39 -62l24 -653q6 -167 24 -219q27 -80 117 -80h28v-305zM517 1478q-69 -70 -212 -120q-134 -46 -242 -46q-39 0 -115.5 13 t-115.5 13q-20 0 -49.5 -22.5t-45.5 -22.5q-20 0 -20 26q0 38 39 110q48 89 145 89q38 0 120 -18.5t124 -18.5q198 0 356 35q32 7 32 -11q0 -11 -16 -27z" />
<glyph unicode="&#xfedf;&#xfe84;" horiz-adv-x="828" arabic-form="isolated" d="M905 1080q16 -20 16 -31q0 -21 -95 -26q2 -32 2 -60q0 -317 -222 -519q50 -71 50 -184q0 -179 -178 -246q-114 -43 -330 -43q-80 0 -80 46q0 13 4 26q12 39 82 243q54 12 154 62q107 53 150 94q-186 270 -371 434q-40 -78 -60 -78q-28 -3 -160 219q31 98 72 185 q34 71 55 71q15 0 43 -27q367 -350 523 -689q84 110 75 300q-6 128 -60 255l100 152q24 37 41 37q16 0 40 -31zM549 274q0 30 -43 89q-54 -41 -252 -145q28 -3 64 -3q231 0 231 59zM198 1513l-44 -75q-200 -68 -324 -158q-19 48 -7 63q19 23 98 79q-84 48 -84 103 q0 56 65.5 120t122.5 64q59 0 93 -46q20 -27 20 -40q0 -14 -26 -14q-14 0 -40.5 3.5t-40.5 3.5q-101 0 -101 -43q0 -16 37 -45q34 -26 54 -33q78 26 146 47q10 3 22 3q16 0 16 -12q0 -8 -7 -20z" />
<glyph unicode="&#xfee0;&#xfe84;" horiz-adv-x="998" arabic-form="final" d="M1026 1h-84q-204 0 -206 421q0 55 1 129l2 129q0 10 -2 51q-63 -198 -141 -384q-104 -248 -168 -307q-51 -47 -220 -63q-105 -10 -169 -10q-132 0 -132 35q0 28 73 61q53 24 223 114q213 113 221 178q5 39 -37 124q-69 140 -221 259q-88 69 -290 185q-22 13 -19 43 q11 115 24 237q4 35 17 35q9 0 33 -17q120 -84 306 -131q57 -14 57 -34q0 -25 -99 -69q121 -97 205.5 -255t100.5 -313q183 268 247 835q7 66 47 66q36 0 38 -62l25 -653q6 -168 24 -219q27 -80 116 -80h28v-305zM167 1513l-44 -75q-200 -68 -324 -158q-19 48 -7 63 q19 23 98 79q-84 48 -84 103q0 56 65.5 120t122.5 64q59 0 93 -46q20 -27 20 -40q0 -14 -26 -14q-14 0 -40.5 3.5t-40.5 3.5q-101 0 -101 -43q0 -16 37 -45q34 -26 54 -33q78 26 146 47q10 3 22 3q16 0 16 -12q0 -8 -7 -20z" />
<glyph unicode="&#xfedf;&#xfe88;" horiz-adv-x="809" arabic-form="isolated" d="M886 1080q16 -20 16 -31q0 -21 -95 -26q2 -32 2 -60q0 -317 -222 -519q50 -71 50 -184q0 -179 -178 -246q-114 -43 -330 -43q-80 0 -80 46q0 13 4 26q12 39 82 243q54 12 154 62q107 53 150 94q-186 270 -371 434q-40 -78 -60 -78q-28 -3 -160 219q31 98 72 185 q34 71 55 71q15 0 43 -27q367 -350 523 -689q84 110 75 300q-6 128 -60 255l100 152q24 37 41 37q16 0 40 -31zM530 274q0 30 -43 89q-54 -41 -252 -145q28 -3 64 -3q231 0 231 59zM324 -364l-44 -74q-200 -69 -324 -159q-19 49 -7 64q18 22 99 79q-85 48 -85 102 q0 56 65.5 120t122.5 64q58 0 93 -46q20 -27 20 -40q0 -14 -25 -14q-13 0 -40.5 3.5t-41.5 3.5q-101 0 -101 -42q0 -18 37 -46q31 -24 54 -33q78 26 146 47q10 3 22 3q16 0 16 -12q0 -8 -7 -20z" />
<glyph unicode="&#xfee0;&#xfe88;" horiz-adv-x="968" arabic-form="final" d="M996 1h-84q-204 0 -206 421q0 55 1 129l2 129q0 10 -2 51q-63 -198 -141 -384q-104 -248 -168 -307q-51 -47 -220 -63q-105 -10 -169 -10q-132 0 -132 35q0 28 73 61q53 24 223 114q213 113 221 178q5 39 -37 124q-69 140 -221 259q-88 69 -290 185q-22 13 -19 43 q11 115 24 237q4 35 17 35q9 0 33 -17q120 -84 306 -131q57 -14 57 -34q0 -25 -99 -69q121 -97 205.5 -255t100.5 -313q183 268 247 835q7 66 47 66q36 0 38 -62l25 -653q6 -168 24 -219q27 -80 116 -80h28v-305zM237 -386l-43 -75q-201 -68 -324 -158q-19 49 -8 63 q18 23 99 79q-85 48 -85 103q0 56 66 120t122 64q59 0 93 -46q20 -27 20 -40q0 -14 -25 -14q-14 0 -41 3.5t-41 3.5q-101 0 -101 -43q0 -16 37 -45q34 -26 54 -33q77 26 147 47q10 3 21 3q17 0 17 -12q0 -6 -8 -20z" />
<glyph unicode="&#xfedf;&#xfe8e;" horiz-adv-x="828" arabic-form="isolated" d="M898 1080q16 -20 16 -31q0 -21 -95 -26q2 -32 2 -60q0 -317 -222 -519q50 -71 50 -184q0 -179 -178 -246q-114 -43 -330 -43q-80 0 -80 46q0 13 4 26q12 39 82 243q54 12 154 62q107 53 150 94q-186 270 -371 434q-40 -78 -60 -78q-28 -3 -160 219q31 98 72 185 q34 71 55 71q15 0 43 -27q367 -350 523 -689q84 110 75 300q-6 128 -60 255l100 152q24 37 41 37q16 0 40 -31zM542 274q0 30 -43 89q-54 -41 -252 -145q28 -3 64 -3q231 0 231 59z" />
<glyph unicode="&#xfee0;&#xfe8e;" horiz-adv-x="1025" arabic-form="final" d="M918 1q-204 0 -206 421q0 55 1 129l2 129q0 10 -2 51q-63 -198 -141 -384q-104 -248 -168 -307q-51 -47 -220 -63q-105 -10 -169 -10q-132 0 -132 35q0 28 73 61q53 24 223 114q213 113 221 178q5 39 -37 124q-69 140 -221 259q-88 69 -290 185q-22 13 -19 43 q11 115 24 237q4 35 17 35q9 0 33 -17q120 -84 306 -131q57 -14 57 -34q0 -25 -99 -69q121 -97 205.5 -255t100.5 -313q183 268 247 835q7 66 47 66q36 0 38 -62l25 -653q6 -168 24 -219q27 -80 116 -80l1 -305h-57zM1088 306v-305h-139l-5 305h144z" />
<glyph unicode="&#x652;&#x64e;" horiz-adv-x="1" d="M307 1330l-39 -327q-3 -24 -19 -24t-21 30l-46 274l109 55q7 4 11 4q6 0 5 -12z" />
<glyph unicode="&#x652;&#x64b;" horiz-adv-x="1" d="M692 1169q12 -11 -1 -24l-116 -116q-7 -7 -13 -7t-13 7l-112 112l-112 -112q-12 -12 -25 0l-118 114q-15 14 2 31l108 110q15 15 30 0l110 -110l110 110q15 15 30 0z" />
<glyph unicode="&#x652;&#x64d;" horiz-adv-x="1" d="M1100 -775q12 -11 -1 -24l-116 -116q-7 -7 -13 -7t-13 7l-112 112l-112 -112q-12 -12 -25 0l-118 114q-15 14 2 31l108 110q15 15 30 0l110 -110l110 110q15 15 30 0z" />
<glyph unicode="&#x6c0;" horiz-adv-x="734" arabic-form="isolated" d="M731 436q0 -177 -112 -307q-118 -136 -292 -136q-313 0 -313 283q0 177 92 380q86 190 142 190q104 0 281 -124q202 -142 202 -286zM622 376q0 36 -185 133q-180 94 -231 94q-24 0 -46 -61q-19 -53 -19 -90q0 -156 225 -156q256 0 256 80zM512 1107l-44 -75 q-200 -68 -324 -158q-19 48 -7 63q19 23 98 80q-84 47 -84 102q0 56 65.5 120t122.5 64q58 0 93 -46q20 -27 20 -40q0 -14 -26 -14q-13 0 -40 3.5t-41 3.5q-101 0 -101 -43q0 -16 37 -45q34 -26 54 -33q78 26 146 47q10 3 22 3q16 0 16 -12q0 -8 -7 -20z" />
<glyph unicode="&#x6a9;" horiz-adv-x="1537" arabic-form="isolated" d="M604 305h305q279 0 279 60q0 41 -255 413q-2 4 -2 9q0 29 31 121q32 97 49 103l526 181v-224l-375 -130q173 -260 173 -417q0 -166 -81 -277q-104 -143 -321 -143h-329v304zM604 1h-581v304h581v-304zM680 899q12 2 12 -16q0 -20 -13 -50q-15 -34 -31 -37 q-179 -31 -179 -57l79.5 -49t79.5 -93q0 -69 -86 -108q-68 -31 -145 -31h-164q-20 0 -20 15q0 14 23 47t36 33q78 -8 128 -8q92 0 92 26q0 4 -79.5 54.5t-79.5 85.5q0 131 347 188z" />
<glyph unicode="&#x6cc;" horiz-adv-x="1674" arabic-form="isolated" d="M715 1352q40 -16 40 -96q0 -239 -112 -316q-58 -38 -136 -44l-140 4h-48q-131 0 -152 -40v-16q21 -24 68 -24h808q453 0 584 -180q68 -86 68 -196v-24q0 -203 -112 -400q-24 -22 -48 -28q-23 0 -32 36q48 151 48 216q0 165 -200 248q0 20 -412 20h-384q-283 0 -480 164 q-48 59 -48 108q0 161 276 336q114 63 328 92q56 23 56 88q0 52 28 52z" />
<glyph unicode="&#x67e;" horiz-adv-x="1635" arabic-form="final" d="M464 -472q-12 11 1 24l114 115q12 12 25 0l117 -113q14 -13 -3 -30l-107 -109q-14 -14 -29 0zM342 -272q-12 11 1 24l116 116q12 12 25 0l113 -112l112 112q12 12 25 0l118 -114q14 -14 -3 -31l-108 -110q-14 -15 -29 0l-110 110l-110 -110q-15 -15 -30 0zM1477 502 q32 -11 32 -44l-20 -88q0 -64 168 -64l4 -4v-292l-8 -8h-32q-162 0 -228 180h-4q-96 -113 -324 -164q-140 -24 -332 -32v4l-4 -4h-4l-724 4v4v300v5l48 -1l416 -4h216q387 0 612 72q26 9 140 116q30 20 44 20z" />
<glyph unicode="&#x67e;" horiz-adv-x="375" arabic-form="initial" d="M377 435q0 -155 -72 -278q-91 -156 -259 -156h-74v305h62q198 0 198 58q0 51 -178 215l143 220q12 18 28 5q82 -67 123 -197q29 -92 29 -172zM-136 -438q-12 12 1 25l115 114q12 12 25 0l116 -113q13 -13 -3 -29l-107 -109q-13 -14 -28 0zM-258 -228q-12 12 1 25l117 116 q13 13 25 0l112 -113l112 113q12 12 25 0l118 -115q14 -14 -2 -30l-108 -110q-15 -15 -30 0l-110 110l-110 -110q-15 -15 -30 0z" />
<glyph unicode="&#x67e;" horiz-adv-x="556" arabic-form="medial" d="M584 1h-75q-170 0 -233 193q-57 -193 -218 -193h-86v305h55q160 0 204 210q14 67 50 67t44 -67q24 -210 184 -210h75v-305zM-136 -488q-12 12 1 25l115 114q12 12 25 0l116 -113q13 -13 -3 -29l-107 -109q-13 -14 -28 0zM-258 -268q-12 12 1 25l117 116q13 13 25 0 l112 -113l112 113q12 12 25 0l118 -115q14 -14 -2 -30l-108 -110q-15 -15 -30 0l-110 110l-110 -110q-15 -15 -30 0z" />
<glyph unicode="&#x686;" horiz-adv-x="1293" arabic-form="final" d="M1329 1h-146q-213 0 -297 113q-72 97 -72 320q-219 -38 -361 -165q-160 -144 -160 -353q0 -201 185 -298q145 -76 366 -76q139 0 283 20q103 14 103 -33q0 -44 -155 -86q-169 -46 -374 -46q-275 0 -463 96q-242 124 -242 373q0 244 210 417q179 147 472 219 q-262 36 -383 36q-71 0 -114 -37q-30 -35 -58 -65q-22 -24 -46 -24q-32 0 -32 40q0 12 3 23q23 86 82 175q97 146 220 146q56 0 201 -30q158 -33 234 -39q323 -27 452 -27q55 0 55 -22t-78 -150q-47 -77 -76 -77q-158 2 -227 -6q0 -139 194 -139h224v-305zM495 -231 q-12 11 1 24l115 115q12 12 25 0l116 -113q14 -13 -3 -30l-107 -109q-14 -14 -29 0zM373 -1q-12 11 1 24l116 117q13 13 26 0l112 -113l112 113q12 12 25 0l118 -115q14 -14 -3 -31l-108 -109q-14 -14 -29 0l-110 109l-110 -109q-15 -15 -30 0z" />
<glyph unicode="&#x686;" horiz-adv-x="1290" arabic-form="initial" d="M1277 516l-85 -157q-17 -31 -42 -34q5 1 -98 1q-79 0 -231 -84q-237 -131 -297 -157q-194 -84 -379 -84h-173v305h162q182 0 312 30q82 19 266 88q-63 18 -244 89q-140 55 -184 55q-60 0 -92 -27q-14 -15 -51 -55q-21 -23 -48 -23q-34 0 -34 40q0 13 5 28q24 73 94 160 q98 122 200 122q50 0 355 -111q318 -115 531 -127q45 -2 45 -25q0 -12 -12 -34zM528 -447q-12 11 1 24l114 115q12 12 25 0l117 -113q14 -13 -3 -30l-107 -108q-14 -14 -29 0zM406 -217q-12 11 1 24l116 117q12 13 25 0l113 -113l112 113q12 12 25 0l118 -115q14 -14 -3 -31 l-108 -109q-15 -15 -30 0l-109 109l-110 -109q-15 -15 -30 0z" />
<glyph unicode="&#x686;" horiz-adv-x="1336" arabic-form="medial" d="M1364 1h-182q-215 0 -283 119q-41 71 -41 252q-177 -158 -280 -224q-230 -147 -442 -147h-164v305h125q180 0 358 61q102 35 285 126q-399 110 -482 110q-46 0 -81 -27q-8 -6 -48 -51q-26 -29 -50 -29q-32 0 -32 40q0 14 6 32q25 75 91 162q99 130 202 130q71 0 198 -38 q179 -53 249 -68q239 -49 443 -71q49 -5 49 -25q0 -12 -15 -38l-106 -184q-86 7 -127 7q-86 0 -86 -46q0 -91 226 -91h187v-305zM508 -387q-12 11 1 24l114 115q12 12 25 0l117 -113q14 -13 -3 -30l-107 -108q-14 -14 -29 0zM386 -177q-12 11 1 24l116 117q12 13 25 0 l113 -113l112 113q12 12 25 0l118 -115q14 -14 -3 -31l-108 -109q-15 -15 -30 0l-109 109l-110 -109q-15 -15 -30 0z" />
<glyph unicode="&#x698;" horiz-adv-x="797" arabic-form="final" d="M654 1h-56q-27 0 -45 18q4 -328 -211 -560q-34 -37 -51 -46q-21 -12 -67 -13q-87 -3 -227 13q-189 21 -189 63q0 35 81 67q162 64 275 129q293 168 293 289q0 102 -271 298l152 226q16 24 25 24t30 -24q153 -179 233 -179h28v-305zM487 904q12 -11 -1 -24l-115 -114 q-12 -12 -25 0l-116 112q-14 13 3 30l107 109q14 14 29 0zM609 704q12 -11 -1 -24l-116 -116q-6 -6 -13 -6t-13 6l-112 112l-112 -112q-12 -12 -25 0l-118 114q-15 14 2 31l108 110q15 15 30 0l110 -110l110 110q15 15 30 0zM603 306h224l8 -8l2 -289l-8 -8h-224l-8 8 l-2 289z" />
<glyph unicode="&#x6af;" horiz-adv-x="1864" arabic-form="final" d="M1575 1136l-571 -161q-5 -2 -5 8q0 17 16.5 63.5t27.5 49.5l532 149v-109zM394 306h15q29 -1 59 -1h452q279 0 279 52q0 41 -255 328q-2 4 -2 16q0 31 19 114q21 91 37 95l577 149v-210l-402 -104l270 -331q107 -108 232 -108h217v-305h-190q-258 0 -400 247 q-47 -122 -101 -171q-83 -76 -247 -76h-512q-24 0 -48 1v304zM673 919q12 2 12 -16q0 -20 -13 -50q-15 -34 -31 -37q-179 -31 -179 -57l79.5 -49t79.5 -93q0 -69 -86 -108q-68 -31 -145 -31h-164q-20 0 -20 15q0 14 23 47t36 33q78 -8 128 -8q92 0 92 26q0 4 -79.5 54.5 t-79.5 85.5q0 131 347 188zM619 1h-581v304h581v-304z" />
<glyph unicode="&#x6af;" horiz-adv-x="597" arabic-form="initial" d="M603 1125l-510 -139q-5 -1 -5 8q0 18 15 62q17 48 29 51l471 127v-109zM603 1234v-109v109zM603 832l-340 -85q165 -192 165 -346q0 -400 -385 -400h-70v305h36q280 0 280 53q0 40 -255 328q-3 3 -3 16q0 32 19 114q21 91 38 95l515 135v-215zM603 1047v-215v215z" />
<glyph unicode="&#x6af;" horiz-adv-x="1105" arabic-form="medial" d="M828 1184l-742 -209q-5 -2 -5 8q0 17 16.5 63.5t27.5 49.5l703 197v-109zM828 893l-573 -148q247 -308 270 -331q107 -108 232 -108h217v-305h-190q-259 0 -400 247q-52 -247 -349 -247h-63v305h30q279 0 279 51q0 40 -255 328q-3 3 -3 16q0 29 20 114q21 91 37 95 l748 194v-211zM925 306h224l8 -8l2 -289l-8 -8h-224l-8 8l-2 289z" />
<glyph unicode="&#x622;" horiz-adv-x="381" arabic-form="final" d="M407 1h-98q-265 0 -265 427q0 340 -25 717l182 128q34 24 45 24q14 0 14 -50l-1 -798q0 -143 120 -143h28v-305zM571 1478q-68 -70 -212 -120q-135 -46 -242 -46q-39 0 -115.5 13t-115.5 13q-21 0 -50 -22.5t-45 -22.5q-21 0 -21 26q0 37 40 110q49 89 145 89 q38 0 120 -18.5t124 -18.5q198 0 355 35q32 7 32 -11q0 -12 -15 -27z" />
<glyph unicode="&#x623;" horiz-adv-x="416" arabic-form="final" d="M442 1h-98q-265 0 -265 427q0 340 -25 717l182 128q34 24 45 24q14 0 14 -50l-1 -798q0 -143 120 -143h28v-305zM366 1519l-44 -74q-200 -68 -324 -158q-19 48 -7 63q18 23 98 79q-84 48 -84 102q0 57 65.5 121t122.5 64q58 0 93 -47q20 -27 20 -39q0 -15 -26 -15 q-13 0 -40 3.5t-41 3.5q-101 0 -101 -42q0 -17 37 -45q32 -24 54 -33q68 23 146 46q10 3 22 3q16 0 16 -11q0 -9 -7 -21z" />
<glyph unicode="&#x624;" horiz-adv-x="933" arabic-form="final" d="M961 1h-201q-46 -349 -239 -557q-63 -68 -90 -68q-119 0 -369 42q-70 12 -70 59q0 25 54 44q101 35 133 51q418 207 476 420q-215 0 -299 17q-198 40 -198 175q0 107 68 295q92 255 227 255q138 0 225 -152q67 -117 86 -276h197v-305zM596 303q-25 79 -93 122 q-49 31 -91 31q-102 0 -102 -96q0 -62 206 -62q44 0 80 5zM603 1021l-43 -74q-201 -68 -324 -159q-19 50 -8 64q17 22 99 79q-85 48 -85 102q0 56 65.5 120.5t122.5 64.5q58 0 93 -47q21 -28 21 -39q0 -15 -26 -15q-13 0 -40.5 3.5t-41.5 3.5q-101 0 -101 -42q0 -17 38 -46 q33 -25 54 -32q64 22 146 46q10 3 21 3q17 0 17 -11q0 -7 -8 -21z" />
<glyph unicode="&#x625;" horiz-adv-x="363" arabic-form="final" d="M391 1h-98q-266 0 -266 427q0 340 -25 717l183 128q34 24 44 24q14 0 14 -50v-798q0 -143 120 -143h28v-305zM340 -298l-43 -74q-201 -68 -324 -159q-19 49 -8 64q16 21 99 79q-85 48 -85 102q0 56 65.5 120.5t122.5 64.5q58 0 93 -47q20 -27 20 -40q0 -14 -25 -14 q-13 0 -40.5 3.5t-41.5 3.5q-101 0 -101 -42q0 -18 37 -46q31 -24 54 -33q77 26 147 47q10 3 21 3q16 0 16 -12q0 -8 -7 -20z" />
<glyph unicode="&#x626;" horiz-adv-x="1630" arabic-form="final" d="M1447 1h-420q-206 0 -206 -53q0 -45 206 -45h218q157 0 157 -134q0 -226 -265 -316q-191 -65 -555 -65q-223 0 -372 70q-211 99 -211 320q0 91 29 205q31 121 76 190q27 41 55 41q29 0 29 -36q0 -14 -7 -33q-38 -100 -38 -180q0 -181 231 -269q167 -64 382 -64 q313 0 467 50q53 17 53 35q0 20 -71 20h-276q-242 0 -242 139q0 130 176 273q194 157 509 157h75v-305zM1437 306h249v-305h-249v305z" />
<glyph unicode="&#x626;" horiz-adv-x="389" arabic-form="initial" d="M386 435q0 -157 -71 -278q-91 -156 -260 -156h-74v305h62q198 0 198 58q0 51 -178 215l144 220q12 18 28 5q83 -68 123 -197q28 -90 28 -172zM197 922l-43 -75q-201 -68 -324 -158q-19 49 -8 63q18 23 99 79q-85 48 -85 103q0 56 66 120t122 64q59 0 93 -46 q20 -27 20 -40q0 -14 -25 -14q-14 0 -41 3.5t-41 3.5q-101 0 -101 -43q0 -16 37 -45q34 -26 54 -33q77 26 147 47q10 3 21 3q16 0 16 -12q0 -8 -7 -20z" />
<glyph unicode="&#x626;" horiz-adv-x="565" arabic-form="medial" d="M593 1h-74q-171 0 -234 193q-56 -193 -218 -193h-86v305h55q160 0 204 210q14 67 51 67q35 0 43 -67q24 -210 185 -210h74v-305zM231 804l-44 -74q-200 -69 -324 -159q-19 49 -7 64q18 22 99 79q-85 47 -85 102q0 57 65.5 120.5t122.5 63.5q58 0 93 -46q20 -27 20 -40 q0 -14 -25 -14q-14 0 -41 3.5t-41 3.5q-101 0 -101 -42q0 -18 37 -46q31 -24 54 -33q78 26 146 47q10 3 22 3q16 0 16 -12q0 -8 -7 -20z" />
<glyph unicode="&#x627;" horiz-adv-x="494" arabic-form="final" d="M399 1h-98q-265 0 -265 427q0 340 -25 717l182 128q34 24 45 24q14 0 14 -50l-1 -798q0 -143 120 -143h28v-305zM360 306h152l6 -8l1 -289l-5 -8h-152l-6 8l-1 289z" />
<glyph unicode="&#x628;" horiz-adv-x="1635" arabic-form="final" d="M768 -264q13 -13 -1 -27l-124 -124q-13 -13 -27 0l-127 123q-15 14 3 32l116 118q15 16 32 0zM1477 502q32 -11 32 -44l-20 -88q0 -64 168 -64l4 -4v-292l-8 -8h-32q-162 0 -228 180h-4q-96 -113 -324 -164q-140 -24 -332 -32v4l-4 -4h-4l-724 4v4v300v5l48 -1l416 -4 h216q387 0 612 72q26 9 140 116q30 20 44 20z" />
<glyph unicode="&#x628;" horiz-adv-x="380" arabic-form="initial" d="M377 435q0 -155 -72 -278q-91 -156 -259 -156h-74v305h62q198 0 198 58q0 51 -178 215l143 220q12 18 28 5q82 -67 123 -197q29 -92 29 -172zM151 -235q13 -12 -1 -26l-125 -124q-13 -13 -27 0l-126 122q-15 15 3 33l116 118q16 16 32 0z" />
<glyph unicode="&#x628;" horiz-adv-x="556" arabic-form="medial" d="M584 1h-75q-170 0 -233 193q-57 -193 -218 -193h-86v305h55q160 0 204 210q14 67 50 67t44 -67q24 -210 184 -210h75v-305zM147 -241q13 -12 -1 -26l-125 -124q-13 -13 -27 0l-126 122q-16 15 2 33l117 118q15 15 31 0z" />
<glyph unicode="&#x629;" horiz-adv-x="1190" arabic-form="final" d="M1042 0q-252 0 -416 108l-40 28h-4q-216 -136 -324 -136h-32q-135 0 -208 220l-4 32v24q0 258 600 640q87 56 128 68h20q21 0 124 -276l8 -16l-84 -32q172 -123 172 -220q0 -88 -92 -132v-4h338l2 -304h-188zM522 428q0 -56 88 -72q208 94 208 148v4q-20 64 -120 64 q-62 0 -152 -84q-24 -28 -24 -60zM170 228q0 -23 40 -32q69 0 252 92q-37 40 -68 144q-224 -130 -224 -204z" />
<glyph unicode="&#x62a;" horiz-adv-x="1629" arabic-form="final" d="M846 614q12 -11 -1 -24l-117 -117q-13 -13 -25 0l-112 113l-112 -113q-12 -12 -25 0l-119 115q-14 14 3 31l108 109q15 15 30 0l110 -109l110 109q15 15 30 0zM1471 502q32 -11 32 -44l-20 -88q0 -64 168 -64l4 -4v-292l-8 -8h-32q-162 0 -228 180h-4q-96 -113 -324 -164 q-140 -24 -332 -32v4l-4 -4h-4l-724 4v4v300v5l48 -1l416 -4h216q387 0 612 72q26 9 140 116q30 20 44 20z" />
<glyph unicode="&#x62a;" horiz-adv-x="383" arabic-form="initial" d="M377 435q0 -155 -72 -278q-91 -156 -259 -156h-74v305h62q198 0 198 58q0 51 -178 215l143 220q12 18 28 5q82 -67 123 -197q29 -92 29 -172zM302 1015q12 -11 -1 -24l-116 -117q-12 -13 -25 0l-113 113l-112 -113q-12 -12 -25 0l-118 115q-14 13 3 30l108 110 q15 15 30 0l110 -110l109 110q15 15 30 0z" />
<glyph unicode="&#x62a;" horiz-adv-x="556" arabic-form="medial" d="M584 1h-75q-170 0 -233 193q-57 -193 -218 -193h-86v305h55q160 0 204 210q14 67 50 67t44 -67q24 -210 184 -210h75v-305zM305 884q12 -12 -1 -25l-116 -116q-12 -12 -25 0l-113 113l-112 -113q-12 -12 -25 0l-118 115q-14 13 3 30l108 110q15 15 30 0l110 -110l109 110 q15 15 30 0z" />
<glyph unicode="&#x62b;" horiz-adv-x="1623" arabic-form="final" d="M786 803q12 -11 -1 -24l-114 -115q-13 -13 -26 0l-116 113q-14 13 3 30l107 109q14 14 29 0zM908 603q12 -11 -1 -24l-116 -116q-12 -12 -25 0l-113 112l-112 -112q-12 -12 -25 0l-118 114q-14 14 3 31l108 110q14 15 29 0l110 -110l110 110q15 15 30 0zM1465 502 q32 -11 32 -44l-20 -88q0 -64 168 -64l4 -4v-292l-8 -8h-32q-162 0 -228 180h-4q-96 -113 -324 -164q-140 -24 -332 -32v4l-4 -4h-4l-724 4v4v300v5l48 -1l416 -4h216q387 0 612 72q26 9 140 116q30 20 44 20z" />
<glyph unicode="&#x62b;" horiz-adv-x="389" arabic-form="initial" d="M377 435q0 -155 -72 -278q-91 -156 -259 -156h-74v305h62q198 0 198 58q0 51 -178 215l143 220q12 18 28 5q82 -67 123 -197q29 -92 29 -172zM132 1144q12 -11 -1 -24l-114 -115q-12 -12 -25 0l-117 113q-14 13 3 30l107 109q14 14 29 0zM264 954q12 -11 -1 -24 l-116 -116q-12 -12 -25 0l-113 112l-111 -112q-13 -13 -26 0l-118 114q-14 14 3 31l108 110q15 15 30 0l110 -110l109 110q15 15 30 0z" />
<glyph unicode="&#x62b;" horiz-adv-x="556" arabic-form="medial" d="M584 1h-75q-170 0 -233 193q-57 -193 -218 -193h-86v305h55q160 0 204 210q14 67 50 67t44 -67q24 -210 184 -210h75v-305zM142 1026q12 -11 -1 -24l-114 -115q-12 -12 -25 0l-117 113q-13 13 3 29l107 109q14 14 29 0zM264 836q12 -11 -1 -24l-116 -117q-12 -13 -25 0 l-113 113l-111 -113q-13 -13 -26 0l-118 115q-14 13 3 30l108 110q15 15 30 0l110 -110l109 110q15 15 30 0z" />
<glyph unicode="&#x62c;" horiz-adv-x="1293" arabic-form="final" d="M1329 1h-146q-213 0 -297 113q-72 97 -72 320q-219 -38 -361 -165q-160 -144 -160 -353q0 -201 185 -298q145 -76 366 -76q139 0 283 20q103 14 103 -33q0 -44 -155 -86q-169 -46 -374 -46q-275 0 -463 96q-242 124 -242 373q0 244 210 417q179 147 472 219 q-262 36 -383 36q-71 0 -114 -37q-30 -35 -58 -65q-22 -24 -46 -24q-32 0 -32 40q0 12 3 23q23 86 82 175q97 146 220 146q56 0 201 -30q158 -33 234 -39q323 -27 452 -27q55 0 55 -22t-78 -150q-47 -77 -76 -77q-158 2 -227 -6q0 -139 194 -139h224v-305zM840 -48 q13 -12 -1 -26l-125 -124q-13 -13 -27 0l-126 123q-15 14 3 32l116 118q16 16 32 0z" />
<glyph unicode="&#x62c;" horiz-adv-x="1290" arabic-form="initial" d="M1277 516l-85 -157q-17 -31 -42 -34q5 1 -98 1q-79 0 -231 -84q-237 -131 -297 -157q-194 -84 -379 -84h-173v305h162q182 0 312 30q82 19 266 88q-63 18 -244 89q-140 55 -184 55q-60 0 -92 -27q-14 -15 -51 -55q-21 -23 -48 -23q-34 0 -34 40q0 13 5 28q24 73 94 160 q98 122 200 122q50 0 355 -111q318 -115 531 -127q45 -2 45 -25q0 -12 -12 -34zM815 -269q13 -12 -1 -26l-125 -125q-13 -13 -27 0l-127 123q-15 15 3 33l116 118q15 16 32 0z" />
<glyph unicode="&#x62c;" horiz-adv-x="1336" arabic-form="medial" d="M1364 1h-182q-215 0 -283 119q-41 71 -41 252q-177 -158 -280 -224q-230 -147 -442 -147h-164v305h125q180 0 358 61q102 35 285 126q-399 110 -482 110q-46 0 -81 -27q-8 -6 -48 -51q-26 -29 -50 -29q-32 0 -32 40q0 14 6 32q25 75 91 162q99 130 202 130q71 0 198 -38 q179 -53 249 -68q239 -49 443 -71q49 -5 49 -25q0 -12 -15 -38l-106 -184q-86 7 -127 7q-86 0 -86 -46q0 -91 226 -91h187v-305zM815 -199q13 -12 -1 -26l-125 -125q-13 -13 -27 0l-127 123q-15 15 3 33l116 118q15 16 32 0z" />
<glyph unicode="&#x62d;" horiz-adv-x="1311" arabic-form="final" d="M1338 1h-146q-213 0 -297 113q-72 97 -72 320q-219 -38 -361 -165q-160 -144 -160 -353q0 -201 185 -298q145 -76 366 -76q139 0 283 20q102 14 102 -33q0 -44 -154 -86q-168 -46 -374 -46q-275 0 -463 96q-242 124 -242 373q0 253 224 429q177 138 458 207 q-263 36 -383 36q-72 0 -114 -37q-78 -89 -105 -89q-31 0 -31 40q0 12 3 23q23 86 82 175q97 146 220 146q55 0 201 -30q159 -33 233 -39q321 -27 453 -27q55 0 55 -22q0 -15 -24 -56q-15 -26 -55 -94q-47 -77 -75 -77q-159 2 -227 -6q0 -139 194 -139h224v-305z" />
<glyph unicode="&#x62d;" horiz-adv-x="1290" arabic-form="initial" d="M1277 516l-85 -157q-17 -31 -42 -34q5 1 -98 1q-79 0 -231 -84q-237 -131 -297 -157q-194 -84 -379 -84h-173v305h162q182 0 312 30q82 19 266 88q-63 18 -244 89q-140 55 -184 55q-60 0 -92 -27q-14 -15 -51 -55q-21 -23 -48 -23q-34 0 -34 40q0 13 5 28q24 73 94 160 q98 122 200 122q50 0 355 -111q318 -115 531 -127q45 -2 45 -25q0 -12 -12 -34z" />
<glyph unicode="&#x62d;" horiz-adv-x="1336" arabic-form="medial" d="M1364 1h-182q-215 0 -283 119q-41 71 -41 252q-177 -158 -280 -224q-230 -147 -442 -147h-164v305h125q180 0 358 61q102 35 285 126q-399 110 -482 110q-46 0 -81 -27q-8 -6 -48 -51q-26 -29 -50 -29q-32 0 -32 40q0 14 6 32q25 75 91 162q99 130 202 130q71 0 198 -38 q179 -53 249 -68q239 -49 443 -71q49 -5 49 -25q0 -12 -15 -38l-106 -184q-86 7 -127 7q-86 0 -86 -46q0 -91 226 -91h187v-305z" />
<glyph unicode="&#x62e;" horiz-adv-x="1299" arabic-form="final" d="M1326 1h-146q-213 0 -297 113q-72 97 -72 320q-219 -38 -361 -165q-160 -144 -160 -353q0 -201 185 -298q145 -76 366 -76q139 0 283 20q102 14 102 -33q0 -44 -154 -86q-168 -46 -374 -46q-275 0 -463 96q-242 124 -242 373q0 253 224 429q177 138 458 207 q-263 36 -383 36q-72 0 -114 -37q-78 -89 -105 -89q-31 0 -31 40q0 12 3 23q23 86 82 175q97 146 220 146q55 0 201 -30q159 -33 233 -39q321 -27 453 -27q55 0 55 -22q0 -15 -24 -56q-15 -26 -55 -94q-47 -77 -75 -77q-159 2 -227 -6q0 -139 194 -139h224v-305zM834 1032 q13 -12 -1 -26l-124 -124q-13 -13 -27 0l-127 123q-15 14 3 32l116 118q16 16 32 0z" />
<glyph unicode="&#x62e;" horiz-adv-x="1290" arabic-form="initial" d="M1277 516l-85 -157q-17 -31 -42 -34q5 1 -98 1q-79 0 -231 -84q-237 -131 -297 -157q-194 -84 -379 -84h-173v305h162q182 0 312 30q82 19 266 88q-63 18 -244 89q-140 55 -184 55q-60 0 -92 -27q-14 -15 -51 -55q-21 -23 -48 -23q-34 0 -34 40q0 13 5 28q24 73 94 160 q98 122 200 122q50 0 355 -111q318 -115 531 -127q45 -2 45 -25q0 -12 -12 -34zM749 1072q13 -12 -1 -26l-124 -124q-13 -13 -27 0l-127 123q-15 14 3 32l116 118q16 16 32 0z" />
<glyph unicode="&#x62e;" horiz-adv-x="1336" arabic-form="medial" d="M1364 1h-182q-215 0 -283 119q-41 71 -41 252q-177 -158 -280 -224q-230 -147 -442 -147h-164v305h125q180 0 358 61q102 35 285 126q-399 110 -482 110q-46 0 -81 -27q-8 -6 -48 -51q-26 -29 -50 -29q-32 0 -32 40q0 14 6 32q25 75 91 162q99 130 202 130q71 0 198 -38 q179 -53 249 -68q239 -49 443 -71q49 -5 49 -25q0 -12 -15 -38l-106 -184q-86 7 -127 7q-86 0 -86 -46q0 -91 226 -91h187v-305zM833 1082q13 -12 -1 -26l-125 -124q-13 -13 -27 0l-126 123q-15 14 3 32l116 118q16 16 32 0z" />
<glyph unicode="&#x62f;" horiz-adv-x="950" arabic-form="final" d="M56 317q47 -28 141 -28q234 0 378 134l-155 418l138 152q15 17 23 17q10 0 17 -22l164 -496q61 -186 172 -186h43v-305h-76q-121 0 -196 116q-34 53 -91 208q-74 -138 -146 -205q-136 -126 -339 -126q-39 0 -73 7v316z" />
<glyph unicode="&#x630;" horiz-adv-x="962" arabic-form="final" d="M62 2v319v-319zM62 321q47 -32 147 -32q234 0 378 134l-155 418l138 152q15 17 23 17q10 0 17 -22l164 -496q61 -186 172 -186h43v-305h-76q-121 0 -196 116q-34 53 -91 208q-74 -138 -146 -205q-136 -126 -339 -126q-43 0 -79 8v319zM592 1157q13 -12 -1 -26l-125 -125 q-13 -13 -27 0l-126 123q-15 15 3 33l116 118q16 16 32 0z" />
<glyph unicode="&#x631;" horiz-adv-x="643" arabic-form="final" d="M505 1h-56q-27 0 -45 18q4 -328 -211 -560q-34 -37 -51 -46q-21 -12 -67 -13q-87 -3 -227 13q-189 21 -189 63q0 35 81 67q162 64 275 129q293 168 293 289q0 102 -271 298l152 226q16 24 25 24t30 -24q153 -179 233 -179h28v-305zM489 306h224l8 -8l2 -289l-8 -8h-224 l-8 8l-2 289z" />
<glyph unicode="&#x632;" horiz-adv-x="717" arabic-form="final" d="M537 1h-56q-27 0 -45 18q4 -328 -211 -560q-34 -37 -51 -46q-21 -12 -67 -13q-87 -3 -227 13q-189 21 -189 63q0 35 81 67q162 64 275 129q293 168 293 289q0 102 -271 298l152 226q16 24 25 24t30 -24q153 -179 233 -179h28v-305zM321 844q13 -13 0 -26l-125 -124 q-13 -13 -27 0l-127 122q-15 15 3 33l116 118q16 16 32 0zM515 306h224l8 -8l2 -289l-8 -8h-224l-8 8l-2 289z" />
<glyph unicode="&#x633;" horiz-adv-x="1953" arabic-form="final" d="M1980 1h-54q-78 0 -131 105q-68 -108 -148 -108q-100 0 -165 106q-65 -103 -151 -103q-61 0 -115 20q0 -304 -166 -463.5t-471 -159.5q-240 0 -393 92q-187 113 -187 336q0 220 101 371q26 39 55 39q23 0 23 -30q0 -17 -7 -38q-36 -109 -36 -194q0 -273 448 -273 q178 0 324 41q217 61 217 188q0 89 -249 355l123 221q14 25 27 25q12 0 27 -19q82 -105 115 -137q73 -70 142 -70q59 0 80 51q5 24 19 93q11 50 45 50q33 0 44 -50q19 -87 23 -93q23 -51 86 -51q60 0 82 51l22 93q12 50 47 50q31 0 41 -50q16 -81 22 -93q24 -50 88 -50h72 v-305z" />
<glyph unicode="&#x633;" horiz-adv-x="1019" arabic-form="initial" d="M1017 393q0 -150 -64 -263q-73 -129 -198 -129q-122 0 -174 124q-22 -53 -74 -88.5t-109 -35.5q-121 0 -188 116q-18 -45 -66.5 -80.5t-96.5 -35.5h-103v305h104q76 0 106 50q12 20 28 92q11 50 41 50q29 0 38 -50q13 -75 24 -93q30 -50 112 -50q71 0 101 51q11 18 27 93 q11 50 39 50q33 0 41 -50q11 -67 33 -93q44 -51 163 -51q95 0 95 76q0 59 -95 168l111 153q11 15 22 15q10 0 17 -17q66 -151 66 -307z" />
<glyph unicode="&#x633;" horiz-adv-x="972" arabic-form="medial" d="M999 1h-54q-76 0 -131 105q-60 -108 -147 -108q-101 0 -166 106q-64 -103 -150 -103q-99 0 -161 100q-17 -29 -62 -61q-54 -39 -99 -39h-57v305h48q62 0 85 50q4 9 21 92q10 50 42 50q30 0 42 -50l22 -93q20 -50 73 -50q73 0 101 51q10 18 25 93q10 50 41 50t42 -50 q18 -81 24 -93q25 -51 90 -51q61 0 83 51q4 17 21 93q11 50 44 50q28 0 39 -50q18 -78 25 -93q25 -50 87 -50h72v-305z" />
<glyph unicode="&#x634;" horiz-adv-x="1960" arabic-form="final" d="M1987 1h-54q-78 0 -131 105q-68 -108 -148 -108q-100 0 -165 106q-65 -103 -151 -103q-61 0 -115 20q0 -304 -166 -463.5t-471 -159.5q-240 0 -393 92q-187 113 -187 336q0 220 101 371q26 39 55 39q23 0 23 -30q0 -17 -7 -38q-36 -109 -36 -194q0 -273 448 -273 q178 0 324 41q217 61 217 188q0 89 -249 355l123 221q14 25 27 25q12 0 27 -19q82 -105 115 -137q73 -70 142 -70q59 0 80 51q5 24 19 93q11 50 45 50q33 0 44 -50q19 -87 23 -93q23 -51 86 -51q60 0 82 51l22 93q12 50 47 50q31 0 41 -50q16 -81 22 -93q24 -50 88 -50h72 v-305zM1592 979q12 -12 -1 -25l-115 -114q-12 -12 -25 0l-116 112q-14 14 2 30l108 109q14 14 28 0zM1714 779q12 -12 -1 -25l-117 -116q-13 -12 -25 0l-113 113l-111 -113q-12 -12 -25 0l-119 115q-14 13 3 30l108 110q15 15 30 0l110 -110l110 110q14 14 29 0z" />
<glyph unicode="&#x634;" horiz-adv-x="1019" arabic-form="initial" d="M1017 393q0 -150 -64 -263q-73 -129 -198 -129q-122 0 -174 124q-22 -53 -74 -88.5t-109 -35.5q-121 0 -188 116q-18 -45 -66.5 -80.5t-96.5 -35.5h-103v305h104q76 0 106 50q12 20 28 92q11 50 41 50q29 0 38 -50q13 -75 24 -93q30 -50 112 -50q71 0 101 51q11 18 27 93 q11 50 39 50q33 0 41 -50q11 -67 33 -93q44 -51 163 -51q95 0 95 76q0 59 -95 168l111 153q11 15 22 15q10 0 17 -17q66 -151 66 -307zM557 1029q13 -12 0 -25l-115 -114q-12 -12 -25 0l-116 112q-14 14 2 30l107 109q14 14 29 0zM679 839q12 -12 -1 -25l-116 -116 q-12 -12 -25 0l-113 113l-111 -113q-13 -13 -26 0l-118 115q-14 13 3 30l108 110q15 15 30 0l110 -110l110 110q14 14 29 0z" />
<glyph unicode="&#x634;" horiz-adv-x="972" arabic-form="medial" d="M999 1h-54q-76 0 -131 105q-60 -108 -147 -108q-101 0 -166 106q-64 -103 -150 -103q-99 0 -161 100q-17 -29 -62 -61q-54 -39 -99 -39h-57v305h48q62 0 85 50q4 9 21 92q10 50 42 50q30 0 42 -50l22 -93q20 -50 73 -50q73 0 101 51q10 18 25 93q10 50 41 50t42 -50 q18 -81 24 -93q25 -51 90 -51q61 0 83 51q4 17 21 93q11 50 44 50q28 0 39 -50q18 -78 25 -93q25 -50 87 -50h72v-305zM605 999q12 -12 -1 -25l-114 -114q-12 -12 -25 0l-117 112q-14 13 3 30l107 109q14 14 29 0zM727 799q12 -12 -1 -25l-116 -116q-12 -12 -25 0l-113 113 l-112 -113q-12 -12 -25 0l-118 115q-14 13 3 30l108 110q14 15 29 0l110 -110l110 110q15 15 30 0z" />
<glyph unicode="&#x635;" horiz-adv-x="2310" arabic-form="final" d="M2210 1h-76q-78 0 -145 43t-95 114q-205 -157 -442 -157q-87 0 -148 16q-17 4 -79 22q0 -641 -640 -641q-240 0 -393 92q-187 113 -187 336q0 220 101 371q26 39 55 39q23 0 23 -30q0 -17 -7 -38q-36 -109 -36 -194q0 -273 448 -273q178 0 324 41q217 61 217 188 q0 89 -249 355l123 221q14 25 27 25q12 0 27 -19q82 -106 186 -163q131 168 308 290q206 142 373 142q85 0 147 -63t62 -148q0 -113 -77 -231q27 -33 79 -33h74v-305zM1949 395q0 61 -87 103q-73 35 -141 35q-206 0 -378 -224q63 -12 186 -12q161 0 279 22q141 26 141 76z M2162 306h224l8 -8l2 -289l-8 -8h-224l-8 8l-2 289z" />
<glyph unicode="&#x635;" horiz-adv-x="1296" arabic-form="initial" d="M1292 570q0 -99 -75 -224q-99 -166 -263.5 -255.5t-361.5 -89.5q-268 0 -364 104q-62 -104 -170 -104h-86v305h56q86 0 125 54q20 28 38 99q13 53 38 53q17 0 53.5 -95.5t86.5 -95.5q135 180 323 310q216 150 392 150q84 0 146 -63.5t62 -147.5zM1107 395q0 61 -87 103 q-72 35 -140 35q-207 0 -379 -224q63 -12 187 -12q161 0 279 22q140 26 140 76z" />
<glyph unicode="&#x635;" horiz-adv-x="1451" arabic-form="medial" d="M1368 1h-76q-78 0 -145 43t-95 114q-205 -157 -460 -157q-268 0 -364 104q-62 -104 -170 -104h-86v305h56q86 0 125 54q20 28 38 99q13 53 38 53q17 0 53.5 -95.5t86.5 -95.5q135 176 322 307q219 153 393 153q85 0 146.5 -63t61.5 -148q0 -113 -76 -231q26 -33 78 -33 h74v-305zM1107 395q0 61 -87 103q-72 35 -140 35q-207 0 -379 -224q63 -12 187 -12q161 0 279 22q140 26 140 76zM1305 306h224l8 -8l2 -289l-8 -8h-224l-8 8l-2 289z" />
<glyph unicode="&#x636;" horiz-adv-x="2291" arabic-form="final" d="M2204 1h-76q-78 0 -145 43t-95 114q-205 -157 -442 -157q-87 0 -148 16q-17 4 -79 22q0 -641 -640 -641q-240 0 -393 92q-187 113 -187 336q0 220 101 371q26 39 55 39q23 0 23 -30q0 -17 -7 -38q-36 -109 -36 -194q0 -273 448 -273q178 0 324 41q217 61 217 188 q0 89 -249 355l123 221q14 25 27 25q12 0 27 -19q82 -106 186 -163q131 168 308 290q206 142 373 142q85 0 147 -63t62 -148q0 -113 -77 -231q27 -33 79 -33h74v-305zM1943 395q0 61 -87 103q-73 35 -141 35q-206 0 -378 -224q63 -12 186 -12q161 0 279 22q141 26 141 76z M1499 989q13 -12 -1 -26l-124 -125q-13 -13 -27 0l-127 123q-15 15 3 33l116 118q16 16 32 0zM2115 306h224l8 -8l2 -289l-8 -8h-224l-8 8l-2 289z" />
<glyph unicode="&#x636;" horiz-adv-x="1296" arabic-form="initial" d="M1292 570q0 -99 -75 -224q-99 -166 -263.5 -255.5t-361.5 -89.5q-268 0 -364 104q-62 -104 -170 -104h-86v305h56q86 0 125 54q20 28 38 99q13 53 38 53q17 0 53.5 -95.5t86.5 -95.5q135 180 323 310q216 150 392 150q84 0 146 -63.5t62 -147.5zM1107 395q0 61 -87 103 q-72 35 -140 35q-207 0 -379 -224q63 -12 187 -12q161 0 279 22q140 26 140 76zM647 943q13 -12 -1 -26l-125 -124q-13 -13 -27 0l-126 122q-15 15 3 33l116 118q16 16 32 0z" />
<glyph unicode="&#x636;" horiz-adv-x="1458" arabic-form="medial" d="M1368 1h-76q-78 0 -145 43t-95 114q-205 -157 -460 -157q-268 0 -364 104q-62 -104 -170 -104h-86v305h56q86 0 125 54q20 28 38 99q13 53 38 53q17 0 53.5 -95.5t86.5 -95.5q135 176 322 307q219 153 393 153q85 0 146.5 -63t61.5 -148q0 -113 -76 -231q26 -33 78 -33 h74v-305zM1107 395q0 61 -87 103q-72 35 -140 35q-207 0 -379 -224q63 -12 187 -12q161 0 279 22q140 26 140 76zM647 983q13 -12 -1 -26l-125 -124q-13 -13 -27 0l-126 122q-15 15 3 33l116 118q16 16 32 0zM1275 306h224l8 -8l2 -289l-8 -8h-224l-8 8l-2 289z" />
<glyph unicode="&#x637;" horiz-adv-x="1556" arabic-form="final" d="M1517 1h-105q-70 0 -141 72q-53 54 -81 115q-170 -128 -389 -168q-104 -19 -282 -19q-139 0 -482 269q-34 27 -34 48q0 31 58 25l361 -35q33 75 33 196q0 264 -108 566l168 195q22 25 34 25q11 0 25 -30l121 -265q14 -31 14 -45q0 -20 -25 -20q-23 0 -75 16 q1 -185 -28 -346l-36 -189q405 342 677 342q92 0 155 -51q68 -55 68 -145q0 -101 -103 -226q54 -25 82 -25h93v-305zM1234 421q0 58 -68 95q-57 31 -122 31q-184 0 -491 -244q108 -6 206 -6q475 0 475 124zM1445 306h224l8 -8l2 -289l-8 -8h-224l-8 8l-2 289z" />
<glyph unicode="&#x637;" horiz-adv-x="1160" arabic-form="initial" d="M1159 557q0 -185 -254 -371q-164 -120 -350 -158q-132 -27 -397 -27h-186v305h164q32 75 32 197q0 265 -107 567l168 195q22 25 33 25q12 0 26 -30l121 -265q14 -31 14 -45q0 -20 -26 -20q-23 0 -75 16q1 -188 -27 -346l-36 -189q404 342 677 342q92 0 155 -51 q68 -55 68 -145zM948 421q0 58 -69 95q-58 31 -121 31q-185 0 -492 -244q109 -6 207 -6q475 0 475 124z" />
<glyph unicode="&#x637;" horiz-adv-x="1266" arabic-form="medial" d="M1231 1h-106q-70 0 -140 72q-53 54 -81 115q-193 -187 -746 -187h-186v305h164q32 75 32 197q0 265 -107 567l168 195q22 25 33 25q12 0 26 -30l121 -265q14 -31 14 -45q0 -20 -26 -20q-23 0 -75 16q1 -188 -27 -346l-36 -189q404 342 677 342q92 0 155 -51 q68 -55 68 -145q0 -101 -103 -226q54 -25 82 -25h93v-305zM948 421q0 58 -69 95q-58 31 -121 31q-185 0 -492 -244q109 -6 207 -6q475 0 475 124zM1175 306h224l8 -8l2 -289l-8 -8h-224l-8 8l-2 289z" />
<glyph unicode="&#x638;" horiz-adv-x="1569" arabic-form="final" d="M1517 1h-105q-70 0 -141 72q-53 54 -81 115q-170 -128 -389 -168q-104 -19 -282 -19q-139 0 -482 269q-34 27 -34 48q0 31 58 25l361 -35q33 75 33 196q0 264 -108 566l168 195q22 25 34 25q11 0 25 -30l121 -265q14 -31 14 -45q0 -20 -25 -20q-23 0 -75 16 q1 -185 -28 -346l-36 -189q405 342 677 342q92 0 155 -51q68 -55 68 -145q0 -101 -103 -226q54 -25 82 -25h93v-305zM1234 421q0 58 -68 95q-57 31 -122 31q-184 0 -491 -244q108 -6 206 -6q475 0 475 124zM1164 1085q13 -13 -1 -27l-124 -124q-13 -13 -27 0l-127 123 q-15 14 3 32l116 118q15 16 32 0zM1455 306h224l8 -8l2 -289l-8 -8h-224l-8 8l-2 289z" />
<glyph unicode="&#x638;" horiz-adv-x="1160" arabic-form="initial" d="M1159 557q0 -185 -254 -371q-164 -120 -350 -158q-132 -27 -397 -27h-186v305h164q32 75 32 197q0 265 -107 567l168 195q22 25 33 25q12 0 26 -30l121 -265q14 -31 14 -45q0 -20 -26 -20q-23 0 -75 16q1 -188 -27 -346l-36 -189q404 342 677 342q92 0 155 -51 q68 -55 68 -145zM948 421q0 58 -69 95q-58 31 -121 31q-185 0 -492 -244q109 -6 207 -6q475 0 475 124zM876 1085q13 -13 -1 -27l-125 -124q-13 -13 -27 0l-126 123q-15 14 3 32l116 118q15 16 32 0z" />
<glyph unicode="&#x638;" horiz-adv-x="1285" arabic-form="medial" d="M1231 1h-106q-70 0 -140 72q-53 54 -81 115q-193 -187 -746 -187h-186v305h164q32 75 32 197q0 265 -107 567l168 195q22 25 33 25q12 0 26 -30l121 -265q14 -31 14 -45q0 -20 -26 -20q-23 0 -75 16q1 -188 -27 -346l-36 -189q404 342 677 342q92 0 155 -51 q68 -55 68 -145q0 -101 -103 -226q54 -25 82 -25h93v-305zM948 421q0 58 -69 95q-58 31 -121 31q-185 0 -492 -244q109 -6 207 -6q475 0 475 124zM876 1085q13 -13 -1 -27l-125 -124q-13 -13 -27 0l-126 123q-15 14 3 32l116 118q15 16 32 0zM1155 306h224l8 -8l2 -289 l-8 -8h-224l-8 8l-2 289z" />
<glyph unicode="&#x639;" horiz-adv-x="1163" arabic-form="final" d="M1190 1h-88q-171 0 -271 103q-75 78 -143 263q-165 -49 -285 -163q-137 -131 -137 -289q0 -212 173 -331q151 -104 373 -104q124 0 226 10q71 7 71 -32q0 -46 -138 -72q-117 -22 -285 -22q-277 0 -457 97q-229 123 -229 376q0 161 123 311q170 206 514 286 q-48 45 -147 103q-65 38 -65 68q0 44 103 105q111 66 219 66q97 0 175 -34q103 -45 103 -129q0 -83 -97 -139q-15 -9 -116 -63q91 -105 298 -105h80v-305z" />
<glyph unicode="&#x639;" horiz-adv-x="847" arabic-form="initial" d="M832 249q-92 -230 -138 -230q-238 0 -346 59q-84 -77 -232 -77h-144v305h127q-47 39 -47 102q0 105 97 243q143 204 306 204q208 0 317 -202q24 -44 24 -72q0 -40 -45 -40q-25 0 -67 15q-101 36 -273 36q-210 0 -210 -108q0 -128 309 -164q155 -18 283 -2q16 2 24 2 q29 0 29 -21q0 -15 -14 -50z" />
<glyph unicode="&#x639;" horiz-adv-x="676" arabic-form="medial" d="M704 1h-73q-185 0 -287 246q-38 -110 -88 -162q-80 -84 -224 -84h-60v305h22q168 0 259 107q-44 43 -146 110q-62 41 -62 71q0 44 81 102q100 71 237 71q103 0 177 -36q93 -45 93 -133q0 -71 -84 -125q-21 -13 -129 -62q33 -43 106 -75q70 -30 128 -30h50v-305z" />
<glyph unicode="&#x63a;" horiz-adv-x="1156" arabic-form="final" d="M1192 1h-88q-171 0 -271 103q-75 78 -143 263q-165 -49 -285 -163q-137 -131 -137 -289q0 -212 173 -331q151 -104 374 -104q123 0 225 10q71 7 71 -32q0 -46 -137 -72q-116 -22 -286 -22q-277 0 -457 97q-229 123 -229 376q0 160 124 311q170 206 514 286 q-50 45 -148 103q-64 38 -64 68q0 44 102 105q110 66 220 66q97 0 175 -34q102 -45 102 -129q0 -83 -97 -139q-22 -13 -115 -63q91 -105 298 -105h79v-305zM862 1022q13 -12 -1 -26l-124 -125q-13 -13 -27 0l-127 123q-15 14 3 32l116 119q15 16 32 0z" />
<glyph unicode="&#x63a;" horiz-adv-x="847" arabic-form="initial" d="M832 249q-92 -230 -138 -230q-238 0 -346 59q-84 -77 -232 -77h-144v305h127q-47 39 -47 102q0 105 97 243q143 204 306 204q208 0 317 -202q24 -44 24 -72q0 -40 -45 -40q-25 0 -67 15q-101 36 -273 36q-210 0 -210 -108q0 -128 309 -164q155 -18 283 -2q16 2 24 2 q29 0 29 -21q0 -15 -14 -50zM591 1146q13 -12 -1 -26l-125 -125q-13 -13 -27 0l-126 123q-15 15 3 33l116 118q16 16 32 0z" />
<glyph unicode="&#x63a;" horiz-adv-x="676" arabic-form="medial" d="M704 1h-73q-185 0 -287 246q-38 -110 -88 -162q-80 -84 -224 -84h-60v305h22q168 0 259 107q-44 43 -146 110q-62 41 -62 71q0 44 81 102q100 71 237 71q103 0 177 -36q93 -45 93 -133q0 -71 -84 -125q-21 -13 -129 -62q33 -43 106 -75q70 -30 128 -30h50v-305zM461 1156 q13 -12 -1 -26l-125 -125q-13 -13 -27 0l-127 123q-15 14 3 32l116 119q15 16 32 0z" />
<glyph unicode="&#x641;" horiz-adv-x="2087" arabic-form="final" d="M1992 1h-56q-78 0 -170 34q-78 29 -118 62q-359 -257 -854 -257q-301 0 -433 72q-183 100 -183 370q0 138 63 249q13 23 37 23q32 0 32 -48q0 -17 -5 -49.5t-5 -49.5q0 -89 53 -148q107 -118 475 -118q351 0 624 110q-34 23 -67 75q-39 62 -39 117q0 91 112 214 q119 130 228 130q103 0 170.5 -74.5t67.5 -178.5q0 -144 -84 -228h152v-305zM1804 451q0 39 -70 72q-60 28 -105 28q-67 0 -125 -31q-50 -27 -50 -49q0 -21 48 -63q57 -50 138 -78q164 56 164 121zM1824 1112q13 -12 -1 -26l-125 -124q-13 -13 -27 0l-127 123q-15 14 3 32 l117 118q15 15 31 0zM1945 306h224l8 -8l2 -289l-8 -8h-224l-8 8l-2 289z" />
<glyph unicode="&#x641;" horiz-adv-x="624" arabic-form="initial" d="M622 531q0 -253 -127 -390q-132 -140 -383 -140h-140v305h232q80 0 169 22q124 31 124 88q-148 -16 -209 -16q-245 0 -245 165q0 124 60 262q77 177 201 177q127 0 216 -113q102 -129 102 -360zM446 649q-79 120 -187 120q-37 0 -63.5 -24t-26.5 -61q0 -53 132 -53 q77 0 145 18zM451 1230q13 -13 0 -26l-125 -125q-13 -13 -27 0l-127 123q-15 14 3 32l116 119q15 16 32 0z" />
<glyph unicode="&#x641;" horiz-adv-x="815" arabic-form="medial" d="M726 1h-85q-192 0 -288 102q-126 -102 -284 -102h-97v305h162q-77 60 -77 130q0 96 115 222q123 135 245 135q64 0 132 -61q86 -78 86 -201q0 -152 -79 -225h170v-305zM516 438q0 27 -51 63q-58 41 -121 41q-49 0 -97 -15q-67 -21 -67 -58t69 -81q50 -32 101 -49 q166 33 166 99zM513 1096q13 -12 -1 -26l-125 -125q-13 -13 -27 0l-126 123q-15 15 2 32l117 119q15 15 31 0zM685 306h224l8 -8l2 -289l-8 -8h-224l-8 8l-2 289z" />
<glyph unicode="&#x642;" horiz-adv-x="1655" arabic-form="final" d="M1624 1h-207q0 -186 -90 -334q-163 -267 -565 -267q-584 0 -584 463q0 69 29 169.5t65 161.5q25 42 52 42q29 0 29 -37q0 -13 -7 -31q-36 -95 -36 -185q0 -279 416 -279q316 0 471 106q116 79 116 188q-248 0 -331 20q-166 40 -166 182q0 131 86 320q97 214 204 214 q153 0 239 -178q52 -108 69 -250h210v-305zM1261 300q-85 159 -198 159q-35 0 -66 -23q-34 -25 -34 -58q0 -87 156 -87q47 0 142 9zM1354 1084q13 -12 0 -25l-117 -116q-13 -12 -25 0l-113 113l-111 -113q-12 -12 -25 0l-119 115q-14 13 3 30l108 110q15 15 30 0l110 -110 l110 110q14 14 29 0zM1585 306h224l8 -8l2 -289l-8 -8h-224l-8 8l-2 289z" />
<glyph unicode="&#x642;" horiz-adv-x="624" arabic-form="initial" d="M622 531q0 -253 -127 -390q-132 -140 -383 -140h-140v305h232q80 0 169 22q124 31 124 88q-148 -16 -209 -16q-245 0 -245 165q0 124 60 262q77 177 201 177q127 0 216 -113q102 -129 102 -360zM446 649q-79 120 -187 120q-37 0 -63.5 -24t-26.5 -61q0 -53 132 -53 q77 0 145 18zM567 1257q12 -11 -1 -24l-116 -117q-13 -13 -26 0l-112 113l-112 -113q-12 -12 -25 0l-118 115q-14 13 3 30l108 110q14 15 29 0l110 -110l110 110q15 15 30 0z" />
<glyph unicode="&#x642;" horiz-adv-x="803" arabic-form="medial" d="M726 1h-85q-192 0 -288 102q-126 -102 -284 -102h-97v305h162q-77 60 -77 130q0 96 115 222q123 135 245 135q64 0 132 -61q86 -78 86 -201q0 -152 -79 -225h170v-305zM516 438q0 27 -51 63q-58 41 -121 41q-49 0 -97 -15q-67 -21 -67 -58t69 -81q50 -32 101 -49 q166 33 166 99zM584 1106q12 -11 -1 -24l-117 -117q-13 -13 -25 0l-112 113l-112 -113q-12 -12 -25 0l-118 115q-15 14 2 31l108 109q15 15 30 0l110 -109l110 109q15 15 30 0zM695 306h224l8 -8l2 -289l-8 -8h-224l-8 8l-2 289z" />
<glyph unicode="&#x643;" horiz-adv-x="1822" arabic-form="final" d="M432 305h447q279 0 279 60q0 41 -234 383q-2 4 -2 15q0 34 21 134q23 109 38 114l556 182v-222l-405 -133q224 -359 251 -393q111 -139 250 -139h216v-305h-142q-180 0 -279 59q-81 48 -165 180q-38 -134 -131 -190q-82 -49 -229 -49h-471v304zM672 959q12 2 12 -16 q0 -20 -13 -50q-15 -34 -31 -37q-179 -31 -179 -57l79.5 -49t79.5 -93q0 -69 -86 -108q-68 -31 -145 -31h-164q-20 0 -20 15q0 14 23 47t36 33q78 -8 128 -8q92 0 92 26q0 4 -79.5 54.5t-79.5 85.5q0 131 347 188zM606 1h-581v304h581v-304z" />
<glyph unicode="&#x643;" horiz-adv-x="655" arabic-form="initial" d="M655 976l-398 -138q29 -46 100 -168q73 -130 73 -249q0 -171 -89 -287q-102 -133 -285 -133h-84v305h32q279 0 279 59q0 41 -255 413q-2 4 -2 9q0 25 32.5 122t47.5 102l549 189v-224zM655 1200v-224v224z" />
<glyph unicode="&#x643;" horiz-adv-x="994" arabic-form="medial" d="M723 992l-468 -154q224 -359 251 -393q111 -139 251 -139h215v-305h-142q-179 0 -278 59q-82 48 -166 180q-32 -112 -97 -166q-88 -73 -263 -73h-54v305h30q279 0 279 59q0 41 -234 383q-2 4 -2 15q0 34 21 134q23 109 38 114l619 203v-222zM932 306h130l5 -8l1 -289 l-5 -8h-130l-5 8l-1 289z" />
<glyph unicode="&#x644;" horiz-adv-x="1661" arabic-form="final" d="M1545 1h-93q-85 0 -138 79q0 -192 -15 -269q-81 -414 -644 -414q-214 0 -340 102q-137 110 -137 320q0 72 27 196q44 203 101 203q26 0 26 -32q0 -10 -4 -23q-25 -80 -25 -148q0 -179 110 -255q92 -63 280 -63q221 0 375 74q132 63 128 122l-84 1188l218 184q25 21 39 21 q25 0 23 -67l-24 -744q-5 -169 145 -169h32v-305zM1505 306h224l8 -8l2 -289l-8 -8h-224l-8 8l-2 289z" />
<glyph unicode="&#x644;" horiz-adv-x="414" arabic-form="initial" d="M413 963q5 -11 5 -17q0 -16 -33 -16q-21 0 -57 6v-579q0 -139 -71 -241q-80 -115 -214 -115h-71v305h75q126 0 126 92q0 74 -29 260q-36 230 -89 414l173 186q20 22 33 22t27 -31z" />
<glyph unicode="&#x644;" horiz-adv-x="686" arabic-form="medial" d="M559 1h-79q-159 0 -217 130q-25 -54 -79.5 -92t-112.5 -38h-99v305h54q61 0 98.5 37t37.5 98v684l184 165q18 16 31 16q22 0 20 -41l-28 -757q-7 -202 126 -202h64v-305zM515 306h224l8 -8l2 -289l-8 -8h-224l-8 8l-2 289z" />
<glyph unicode="&#x645;" horiz-adv-x="1118" arabic-form="final" d="M1054 1h-56q-32 0 -54 19q7 -41 7 -88q0 -250 -192 -250q-176 0 -267 190q-64 134 -64 282q-124 -7 -164 -20q-91 -30 -89 -117l11 -414q2 -58 -17 -128q-25 -93 -69 -93q-45 0 -55 132l-38 523q-2 28 -2 46q0 211 148 307q109 71 273 71q0 119 25 119q14 0 80 -49 q90 -67 138 -97q112 -70 167 -92q88 -36 183 -36h35v-305zM832 6q0 33 -81 80q-133 77 -222 154q0 -110 48 -201q59 -112 160 -112q37 0 66 21.5t29 57.5zM1033 306h182l6 -8l2 -289l-7 -8h-182l-6 8l-2 289z" />
<glyph unicode="&#x645;" horiz-adv-x="707" arabic-form="initial" d="M706 236q0 -111 -44 -188q-54 -95 -157 -95q-184 0 -280 237q-74 -189 -203 -189h-50v305h71q72 0 98 50q17 33 17 113q0 103 64 177.5t166 74.5q155 0 245 -174q73 -141 73 -311zM551 431q-63 142 -140 142q-67 0 -67 -92q0 -64 32 -145q63 -160 169 -160q53 0 53 78 q0 71 -47 177z" />
<glyph unicode="&#x645;" horiz-adv-x="977" arabic-form="medial" d="M1005 1h-74q-75 0 -127 46q-31 28 -75 95q-78 -177 -197 -177q-146 0 -285 217q-28 -67 -77 -117q-63 -64 -133 -64h-65v305h68q91 0 119 56q14 28 14 97q0 115 59 197q74 103 215 103q110 0 199 -118l131 -217q72 -118 145 -118h83v-305zM609 209q43 0 43 61 q0 72 -54 180q-73 145 -162 145q-63 0 -63 -84q0 -75 49 -156q88 -146 187 -146z" />
<glyph unicode="&#x646;" horiz-adv-x="1518" arabic-form="final" d="M1406 1h-62q-104 0 -143 30q6 -49 6 -95q0 -274 -186 -413q-166 -125 -448 -125q-240 0 -393 92q-187 113 -187 336q0 220 101 371q26 39 55 39q23 0 23 -30q0 -17 -7 -38q-36 -109 -36 -194q0 -273 448 -273q178 0 324 41q217 61 217 188q0 89 -249 355l132 221 q16 26 27 26t27 -20q82 -101 126 -138q81 -68 170 -68h55v-305zM711 615q13 -13 0 -26l-125 -124q-13 -13 -27 0l-127 122q-15 15 3 33l116 118q16 16 32 0zM1381 306h174l6 -8l2 -289l-6 -8h-174l-6 8l-2 289z" />
<glyph unicode="&#x646;" horiz-adv-x="380" arabic-form="initial" d="M377 435q0 -155 -72 -278q-91 -156 -259 -156h-74v305h62q198 0 198 58q0 51 -178 215l143 220q12 18 28 5q82 -67 123 -197q29 -92 29 -172zM145 1015q13 -13 -1 -27l-124 -124q-13 -13 -27 0l-127 123q-15 14 3 32l116 118q15 16 32 0z" />
<glyph unicode="&#x646;" horiz-adv-x="556" arabic-form="medial" d="M584 1h-75q-170 0 -233 193q-57 -193 -218 -193h-86v305h55q160 0 204 210q14 67 50 67t44 -67q24 -210 184 -210h75v-305zM150 834q13 -12 -1 -26l-125 -124q-13 -13 -27 0l-126 122q-15 15 3 33l116 118q16 16 32 0z" />
<glyph unicode="&#x647;" horiz-adv-x="740" arabic-form="final" d="M768 1h-82q-133 0 -199 109q-29 48 -59 174q-54 -120 -86 -120q-64 0 -192 50q-156 61 -156 129q0 41 32.5 115t62.5 99q50 42 272 160l-16 110l133 183q20 27 32 27q17 0 22 -39l65 -466q14 -98 32 -142q34 -82 104 -82h35v-307zM415 382l-32 203q-140 -55 -209 -129 q79 -54 241 -74z" />
<glyph unicode="&#x647;" horiz-adv-x="1026" arabic-form="initial" d="M1023 265q0 -72 -52 -158q-68 -113 -178 -113q-127 0 -350 144q-66 -55 -178.5 -96.5t-197.5 -41.5h-86v306h159q-98 51 -98 141q0 54 65 126q55 61 115 92l-90 35l106 261q15 36 39 36q15 0 40 -14q234 -133 410 -280q296 -247 296 -438zM886 229q0 73 -233 211 q-1 -33 -22 -81q-22 -51 -46 -70q177 -97 256 -97q45 0 45 37zM529 436q0 49 -71 97q-66 46 -117 46q-35 0 -72 -18q-45 -22 -45 -53q0 -33 99 -94q93 -57 118 -57q34 0 61 23t27 56z" />
<glyph unicode="&#x647;" horiz-adv-x="892" arabic-form="medial" d="M739 1h-173q160 -120 160 -247q0 -62 -47 -111q-64 -67 -190 -67q-141 0 -259 145q-108 133 -123 280h-126v305h133q32 163 166 303q145 151 303 151q62 0 105 -49q40 -48 40 -111q0 -87 -78 -187q-51 -65 -106 -107h195v-305zM739 306h184v-305h-184v305zM430 510 q-119 0 -212 -204h178q102 68 102 148q0 56 -68 56zM499 -218q79 0 79 39q0 67 -194 180h-175q16 -76 81 -138q84 -81 209 -81z" />
<glyph unicode="&#x648;" horiz-adv-x="822" arabic-form="final" d="M850 1h-201q-46 -349 -239 -557q-63 -68 -90 -68q-119 0 -369 42q-70 12 -70 59q0 25 54 44q101 35 133 51q418 207 476 420q-215 0 -299 17q-198 40 -198 175q0 107 68 295q92 255 227 255q138 0 225 -152q67 -117 86 -276h197v-305zM485 303q-25 79 -93 122 q-49 31 -91 31q-102 0 -102 -96q0 -62 206 -62q44 0 80 5z" />
<glyph unicode="&#x649;" horiz-adv-x="1569" arabic-form="final" d="M1446 1h-413q-206 0 -206 -53q0 -45 206 -45h218q157 0 157 -134q0 -226 -265 -316q-191 -65 -555 -65q-223 0 -372 70q-211 99 -211 320q0 91 29 205q31 121 76 190q27 41 55 41q29 0 29 -36q0 -14 -7 -33q-38 -100 -38 -180q0 -181 231 -269q167 -64 382 -64 q313 0 467 50q53 17 53 35q0 20 -71 20h-276q-242 0 -242 139q0 130 176 273q194 157 509 157h68v-305zM1426 306h167v-305h-167v305z" />
<glyph unicode="&#x64a;" horiz-adv-x="2000" arabic-form="final" d="M2025 306v-305v305zM2025 1h-1737q-131 0 -152 -39v-16q21 -23 68 -23h808q452 0 583 -178q68 -85 68 -194v-24q0 -201 -112 -396q-24 -22 -48 -28q-23 0 -32 36q48 149 48 214q0 163 -200 245q0 20 -411 20h-384q-283 0 -480 162q-48 58 -48 107q0 162 288 340 q179 79 360 79h1381v-305z" />
<glyph unicode="&#x64a;" horiz-adv-x="371" arabic-form="initial" d="M377 435q0 -155 -72 -278q-91 -156 -259 -156h-74v305h62q198 0 198 58q0 51 -178 215l143 220q12 18 28 5q82 -67 123 -197q29 -92 29 -172zM269 -232q12 -11 -1 -24l-116 -116q-7 -7 -13 -7t-13 7l-112 112l-112 -112q-12 -12 -25 0l-118 114q-15 14 2 31l108 110 q15 15 30 0l110 -110l110 110q15 15 30 0z" />
<glyph unicode="&#x64a;" horiz-adv-x="556" arabic-form="medial" d="M584 1h-75q-170 0 -233 193q-57 -193 -218 -193h-86v305h55q160 0 204 210q14 67 50 67t44 -67q24 -210 184 -210h75v-305zM258 -252q12 -11 -1 -24l-116 -116q-7 -7 -13 -7t-13 7l-112 112l-112 -112q-12 -12 -25 0l-118 114q-15 14 2 31l108 110q15 15 30 0l110 -110 l110 110q15 15 30 0z" />
<glyph unicode="&#xd;" horiz-adv-x="465" />
<glyph unicode=" "  horiz-adv-x="401" />
<glyph unicode="&#x09;" horiz-adv-x="401" />
<glyph unicode="&#xa0;" horiz-adv-x="401" />
<glyph unicode="!" horiz-adv-x="525" d="M479 1172q0 -8 -121 -716q-5 -32 -33 -32q-29 0 -34 33l-113 718q0 57 49 92q44 32 103 32q60 0 102 -33q47 -36 47 -94zM471 118q0 -58 -42 -100t-100 -42q-59 0 -101 41.5t-42 100.5t42 101t101 42t100.5 -42t41.5 -101z" />
<glyph unicode="%" horiz-adv-x="1010" d="M302 1100q0 -47 -31.5 -77.5t-78.5 -30.5q-46 0 -77 31t-31 77q0 44 32 76t76 32q46 0 78 -31t32 -77zM821 1330l-505 -1437l-104 2l509 1438zM923 93q0 -46 -31 -77.5t-77 -31.5q-47 0 -77.5 31t-30.5 78q0 46 31 77t77 31q44 0 76 -32t32 -76z" />
<glyph unicode="(" horiz-adv-x="438" d="M490 1406q-9 -15 -64 -132q-185 -393 -185 -771q0 -376 176 -764q62 -137 62 -127q0 -25 -23 -25q-20 0 -114 117q-117 146 -192 320q-102 237 -102 477q0 246 106 486q79 179 199 324q97 117 117 117t20 -22z" />
<glyph unicode=")" horiz-adv-x="444" d="M-78 1406q0 5 65 -132q184 -388 184 -771q0 -376 -176 -764q-62 -137 -62 -127q0 -25 24 -25q19 0 113 117q120 149 193 320q101 235 101 477q0 248 -105 486q-78 176 -200 324q-97 117 -116 117q-21 0 -21 -22z" />
<glyph unicode="*" horiz-adv-x="1689" d="M839 1116h17q12 -31 39 -49q20 -12 51 -16q28 0 48.5 18t22.5 51l-4 23l15 6q26 -33 26 -70q0 -45 -40 -78.5t-85 -33.5q-20 0 -40.5 7t-43.5 30q-36 -37 -86 -37q-45 0 -85 32.5t-40 79.5q0 37 27 70l14 -6l-4 -25q0 -28 21.5 -47.5t54.5 -19.5q25 0 49.5 14t42.5 51z M581 840q-157 -80 -266 -271q-84 -151 -107 -309l-10 -102v-45q0 -168 56.5 -296t187.5 -263l-6 -18q-348 129 -410 519l-8 107q0 262 162 456.5t399 237.5q2 -4 2 -9v-7zM778 -585q-17 -4 -56.5 -8.5t-64.5 -8.5l-176 -4l18 17q101 18 226 80q-189 104 -296.5 296.5 t-107.5 405.5q0 186 77 351t232 287l2 -20q-75 -145 -120 -297q-37 -141 -37 -266q0 -195 88 -362q73 -146 211 -258l-27 1193l-24 27q8 10 12 16q14 19 41 41q53 47 76 56q28 -9 79 -56q50 -41 54 -57l-25 -27l-29 -1195q131 110 216 268.5t85 355.5q0 127 -37.5 268 t-119.5 293l2 20q151 -120 230 -289t79 -352q0 -216 -105.5 -405.5t-297.5 -293.5l114 -48l111 -32l18 -17h-47h-33h-45h-36q-25 4 -37 4q-47 0 -101 17v-23l-73 -94l-74 94zM1681 55q-29 -190 -129 -321t-281 -198l-6 18q123 125 183.5 263t60.5 298l-2 63l-8 82 q-19 154 -107 309q-104 191 -266 271q0 8 2 16q231 -41 396 -237.5t165 -456.5v-51z" />
<glyph unicode="+" horiz-adv-x="1001" d="M919 357h-364v-364h-107v364h-365v108h365v364h107v-364h364v-108z" />
<glyph unicode="," horiz-adv-x="2354" d="M1794 1522q14 -27 -70 -64q-56 -24 -112 -47q-8 -3 -29.5 -15t-27.5 -12l-5 2q0 32 56 58q43 18 86 37q30 15 63.5 28.5t38.5 12.5zM1794 1430q10 -6 16.5 -26t6.5 -45q0 -29 -10 -48.5t-32 -19.5q-17 0 -32 9q-4 0 -24.5 -16.5t-38.5 -16.5q-7 0 -11 1l-10 -2 q-11 3 -20 24.5t-9 42.5q0 16 5 25.5t16 11.5l12 -32q10 -27 25 -27q10 0 24 14q-4 20 -8 41q0 7 3 15t18 16q2 -2 17 -33q11 -23 30 -23l12 2q2 3 0 16q-6 40 -6 44q0 23 16 27zM2193 942q2 -16 2 -22q0 -87 -125 -133q-98 -36 -219 -36q-29 0 -49 3q-18 9 -31 9 q-22 0 -41 -32q-28 -47 -38 -57l-8 4q0 20 38 74q5 12 11 24q-18 9 -44 31q-8 7 -22 20q-31 -26 -73 -37.5t-92 -11.5q-41 0 -85.5 7.5t-81.5 19.5q-16 5 -42 19q-9 5 -27 16q-11 -38 -14.5 -50.5t-12.5 -39.5q9 -1 10 0q59 -31 69 -38q30 -22 30 -55q0 -26 -15 -59 q-12 -30 -47 -53q-84 -62 -175.5 -97.5t-186.5 -35.5q-89 0 -138 57q-44 52 -44 135q0 42 12 86q0 10 16 64q7 24 4 28q-18 16 -27.5 34.5t-15.5 41.5h-4l-22 -61q-34 -50 -57 -70q-33 -29 -70 -29q-36 0 -76 25q-34 39 -34 79q1 7 1 11l-2 2q-7 -4 -24 -25t-31 -30 q-10 -10 -24.5 -14.5t-33.5 -4.5q-36 0 -66 15.5t-30 35.5q0 11 10 21q20 51 80 100t115 64q4 3 27 65q20 54 41 48q3 -5 -3.5 -94t-11.5 -117q0 -39 17 -58t45 -19q39 0 79 34t46 79q0 59 -3.5 106t-11.5 89q13 53 25 82l26 20q0 -15 13 -95q6 -37 6 -60q0 -53 15 -105 q20 -69 57 -94q12 -4 26.5 -7t28.5 -3q21 0 31 10q-23 65 -46 131q-30 93 -30 151q0 32 7.5 55.5t25.5 41.5q7 17 11 17q6 0 9.5 -25.5t3.5 -34.5q-1 -6 -1 -17q0 -47 38 -142q23 -58 31 -85q10 -23 10 -53q0 -41 -16.5 -79t-45.5 -60q-17 -7 -41 -7q-20 0 -37.5 3.5 t-35.5 7.5q-6 -33 -8.5 -53t-2.5 -43q0 -55 22 -88q26 -39 87 -56q26 -3 51 -3q52 0 108 14q68 17 171 67q9 5 20.5 15t12.5 16q-3 0 -27.5 9t-50.5 19q-46 9 -71 14q-47 10 -52 25q8 23 19 47q16 36 24 37q47 0 80.5 7t36.5 18q0 44 -5.5 141.5t-5.5 126.5q0 64 -12 262 q-6 99 -6 152q0 45 8 85q13 65 39 65q6 0 12 -3q0 -93 10 -204.5t20.5 -229.5t10.5 -201q11 -29 18 -46q14 -31 36 -48q24 -16 63 -23.5t90 -7.5q61 0 114.5 11.5t76.5 30.5q14 19 17 22q15 17 22 14q13 -5 13 -14q0 -3 -5.5 -16t-3.5 -21q47 -39 64 -39q9 0 25 11 q36 25 40 28q47 36 95 72q69 47 116 47q22 0 39 -10q25 -14 51 -27q27 -17 32 -43zM1077 983q0 -49 -4 -88t-16 -88v-10l-10 -20q-6 -12 -19 -13q-13 6 -18.5 40.5t-5.5 82.5q0 35 1 63.5t2 55.5q-1 12 -1 16q0 53 -8.5 131.5t-8.5 110.5q0 15 -5.5 92t-5.5 102 q0 59 11 101.5t39 62.5q10 -3 20 -118q6 -74 11.5 -208t5.5 -145q0 -28 3 -60q9 -95 9 -108zM901 1604q-6 -19 -66 -33q-43 -10 -85 -19q-101 -29 -165 -48q-121 -37 -161 -60q-16 -8 -43.5 -19.5t-44.5 -15.5q-7 0 -4 12t12 31l51 23q0 5 100 39q57 19 188 62q98 32 106 34 q33 10 57.5 16t35.5 6q22 0 22 -16q0 -4 -3 -12zM768 1501q10 -3 18 -25t8 -49q0 -30 -12 -50t-39 -20q-9 0 -20 3q-9 6 -32 -9.5t-36 -15.5q-27 7 -39 24.5t-12 38.5q0 27 13 39q7 6 12 -1q0 -27 10.5 -40t24.5 -13q11 0 19.5 7.5t8.5 18.5t-10 21q5 41 15 41 q6 0 18.5 -28.5t13.5 -29.5q14 -6 20 -6q10 0 10 14q0 7 -2 18q-5 27 -5 35q0 22 16 27zM2228 18q8 -27 -41 -73q-31 -29 -75 -58q-13 -11 -93.5 -35t-99.5 -24q-60 0 -113 24.5t-81 67.5q-7 -6 -25 -48q-13 -30 -39 -30q-12 0 -25 4q-25 0 -50 10q-67 27 -70 27 q-41 -39 -76.5 -54.5t-97.5 -23.5q-69 11 -93.5 33.5t-44.5 83.5l-6 31q-3 -2 -39 -47q-16 -20 -31 -26t-35 -11t-39 -5q-23 0 -37.5 7.5t-14.5 25.5q0 3 2 13q13 29 27 52.5t34.5 45t60.5 48.5l66 44q0 42 8.5 68.5t36.5 48.5q5 0 8.5 -9.5t3.5 -34.5v-21q1 -1 6 -77.5 t13 -97.5q0 -35 27.5 -52t68.5 -17q36 0 70 10t53 25q16 18 33 35q8 7 19 7q14 0 40 -20q31 -11 34 -12q26 -8 45 -8q24 0 34 14q0 124 -14 277t-27 296q0 57 4 78q9 47 39 62q12 -4 21.5 -87t19.5 -177q-1 -7 -1 -14q0 -49 7 -152.5t10 -108.5q0 -67 17 -106q21 -48 75 -78 h6q-8 21 -12.5 41.5t-4.5 38.5q0 46 28 85q21 30 75 74q41 21 79 21q36 0 70 -14.5t73 -44.5q13 -16 13 -25q0 -8 -12 -8q-14 0 -33.5 6.5t-33.5 11.5q-4 1 -18 1q-54 0 -110 -15q-70 -19 -70 -45q0 -8 4 -13q0 -37 40 -79t83 -42q17 0 30 7q15 0 131 56q23 6 47 13z M1546 381q-18 -38 -60 -64q-38 -23 -83 -28q-27 -10 -45 -10q-19 7 -19 16q0 8 18 20q25 13 50 27q0 5 -9 5q-8 0 -24 -4.5t-32 -10.5q-17 -12 -23 -12q-7 0 -7 11q0 18 15.5 51t28.5 44q36 17 99 17q42 0 68 -10.5t26 -34.5q0 -8 -3 -17zM1643 -334q-3 -7 -33.5 -35 t-34.5 -30q-5 1 -38 31q-22 20 -34 32q20 35 37.5 54.5t29.5 19.5q6 0 11 -6q10 -4 34 -27q28 -27 28 -39zM1481 -373q-5 -10 -22.5 -23.5t-26.5 -13.5q-27 18 -42 34t-15 33q0 21 26 44q11 11 18 19.5t9 8.5q1 0 9.5 -6t20.5 -12l33 -33q8 -10 8 -19q0 -14 -18 -32zM721 -6 q-3 -26 -15 -62q-16 -49 -30 -49q-8 4 -9.5 24.5t-1.5 43.5q0 28 2 74.5t1 54.5q-8 35 -10.5 80t-2.5 96q0 34 -5.5 113.5t-5.5 102.5q0 38 4 69t16 63q4 10 18 31t19 31q4 0 14 -7q0 -77 5 -174q12 -234 12 -295q0 -107 -11 -196zM1030 55q-33 -106 -67 -153 q-53 -74 -142 -82q-3 -2 -19.5 -3t-28.5 -1h-27q-24 0 -64.5 9t-50.5 21q5 18 68 30q148 28 165 50q29 14 66 45q48 40 48 68q0 6 -3 12q-11 -6 -28.5 -24.5t-32.5 -18.5q-13 0 -33 10q-24 21 -24 60q0 45 28.5 93t62.5 65q49 0 69 -68q13 -44 13 -113zM549 180 q0 -10 1 -41.5t1 -51.5q0 -111 -28 -158q-24 -40 -68 -44q-46 0 -77 50q-14 24 -28 47q-21 -26 -41.5 -48.5t-36.5 -25.5q-6 -9 -22 -12t-33 -3q-30 0 -52 11t-22 34q0 13 11 33q23 62 85 110q16 12 72 50q0 9 -0.5 20t-1.5 25q0 18 11 43q6 34 24 34q11 0 11 -21 q0 -9 -3 -23q0 -22 20 -97t32 -75q11 -22 29.5 -37t41.5 -15q8 0 19 3q8 5 8 29q0 22 -4 43.5t-10 41.5q0 77 -3.5 136t-21.5 235l-2 14q-19 7 -26 17t-7 25q0 14 7 34q19 56 20 60q10 21 15 31q10 19 17 19q3 0 7.5 -8t7.5 -24q-5 -16 -6 -22q-4 -15 -4 -22q0 -9 12 -15 q23 -12 39 -25q1 -1 2 -6l-8 -46q-11 -52 -9 -61q0 -57 7 -127.5t14 -136.5zM2120 885q-5 8 -15.5 16t-21.5 17q-37 20 -68 20q-37 0 -80 -34q-31 -27 -47 -40l-22 -16v-4l31 -2q69 0 116 6q79 10 107 37zM469 872q3 32 3 38q-1 2 -2 5q-15 -8 -17 -8q-13 -14 -66 -40 q-26 -13 -37 -23l23 -10q43 0 62 7.5t28 24.5q2 0 6 6zM1196 39q-17 -8 -33 -15q-63 -51 -63 -67h4q48 0 73 14t25 41q0 12 -6 27zM948 115q4 19 -15 19q-16 0 -16 -12q0 -4 3 -9l4 -2zM332 43q-3 3 -3.5 13t-0.5 12q-4 1 -39 -30q-27 -24 -41 -38q-2 -3 -2 -4l6 -2 q31 0 51 9q29 13 29 40z" />
<glyph unicode="-" horiz-adv-x="1001" d="M919 357h-836v108h836v-108z" />
<glyph unicode="." horiz-adv-x="536" d="M470 121q0 -61 -42 -103.5t-103 -42.5q-62 0 -104 42t-42 104t42 104t104 42q61 0 103 -42.5t42 -103.5z" />
<glyph unicode="/" horiz-adv-x="568" d="M478 1330l-301 -1435h-94l303 1437z" />
<glyph unicode="0" horiz-adv-x="981" d="M716 530l-233 -230l-233 232l230 231z" />
<glyph unicode="&#x660;" horiz-adv-x="981" d="M716 530l-233 -230l-233 232l230 231z" />
<glyph unicode="1" horiz-adv-x="981" d="M631 372q0 -91 -24 -233q-32 -188 -79 -188q-39 0 -39 206q0 501 -215 867l146 263q10 18 23 18q16 0 46 -64q49 -105 85 -274q57 -265 57 -595z" />
<glyph unicode="&#x661;" horiz-adv-x="981" d="M631 372q0 -91 -24 -233q-32 -188 -79 -188q-39 0 -39 206q0 501 -215 867l146 263q10 18 23 18q16 0 46 -64q49 -105 85 -274q57 -265 57 -595z" />
<glyph unicode="2" horiz-adv-x="981" d="M870 1244q-58 -445 -355 -445q-21 0 -42 3q22 -264 22 -400q0 -120 -32 -274q-37 -177 -79 -177q-17 0 -25 167q-22 440 -159 728q-22 46 -93 158l137 278q12 24 24 24q11 0 24 -19q72 -106 80 -114q66 -70 158 -70q116 0 198 72q32 28 80 101q17 26 39 26q25 0 25 -40 q0 -5 -2 -18z" />
<glyph unicode="&#x662;" horiz-adv-x="981" d="M870 1244q-58 -445 -355 -445q-21 0 -42 3q22 -264 22 -400q0 -120 -32 -274q-37 -177 -79 -177q-17 0 -25 167q-22 440 -159 728q-22 46 -93 158l137 278q12 24 24 24q11 0 24 -19q72 -106 80 -114q66 -70 158 -70q116 0 198 72q32 28 80 101q17 26 39 26q25 0 25 -40 q0 -5 -2 -18z" />
<glyph unicode="3" horiz-adv-x="981" d="M951 1241q0 -150 -64 -277q-73 -144 -180 -144q-90 0 -134 67q-81 -96 -200 -88q21 -111 21 -404q0 -105 -20 -245q-29 -201 -78 -201q-24 0 -26 67l-6 199q-5 147 -41 320q-28 137 -96 284q-59 128 -107 188l121 251q17 36 34 36q14 0 30 -32q74 -145 176 -145 q79 0 122 46q25 27 47 86q17 47 31 47q21 0 33 -47q16 -66 28 -86q27 -46 85 -46q59 0 101 46q21 23 53 86q24 47 36 47q34 0 34 -55z" />
<glyph unicode="&#x663;" horiz-adv-x="981" d="M951 1241q0 -150 -64 -277q-73 -144 -180 -144q-90 0 -134 67q-81 -96 -200 -88q21 -111 21 -404q0 -105 -20 -245q-29 -201 -78 -201q-24 0 -26 67l-6 199q-5 147 -41 320q-28 137 -96 284q-59 128 -107 188l121 251q17 36 34 36q14 0 30 -32q74 -145 176 -145 q79 0 122 46q25 27 47 86q17 47 31 47q21 0 33 -47q16 -66 28 -86q27 -46 85 -46q59 0 101 46q21 23 53 86q24 47 36 47q34 0 34 -55z" />
<glyph unicode="4" horiz-adv-x="981" d="M895 1060q0 -100 -90 -195q-109 -116 -280 -116q-36 0 -75 6q20 -126 20 -384q0 -84 -26 -231q-33 -188 -78 -188q-27 0 -33 155q-8 234 -29 350q-58 329 -222 542l135 270q19 38 32 38q11 0 27 -34q80 -172 117 -206q35 102 104 173q83 86 180 86q68 0 132 -62 q56 -54 56 -87q0 -36 -35 -36q-18 0 -73 19.5t-86 19.5q-54 0 -104 -32q-56 -36 -56 -87q0 -90 116 -90q91 0 151 39q26 17 63 51q26 24 33 24q21 0 21 -25z" />
<glyph unicode="&#x664;" horiz-adv-x="981" d="M895 1060q0 -100 -90 -195q-109 -116 -280 -116q-36 0 -75 6q20 -126 20 -384q0 -84 -26 -231q-33 -188 -78 -188q-27 0 -33 155q-8 234 -29 350q-58 329 -222 542l135 270q19 38 32 38q11 0 27 -34q80 -172 117 -206q35 102 104 173q83 86 180 86q68 0 132 -62 q56 -54 56 -87q0 -36 -35 -36q-18 0 -73 19.5t-86 19.5q-54 0 -104 -32q-56 -36 -56 -87q0 -90 116 -90q91 0 151 39q26 17 63 51q26 24 33 24q21 0 21 -25z" />
<glyph unicode="5" horiz-adv-x="981" d="M903 393q0 -161 -75 -298q-83 -152 -201 -152q-102 0 -163 84q-80 -72 -187 -72q-101 0 -157 98q-46 81 -46 189q0 154 104 411q86 212 175 347l-53 60l132 241q21 38 29 38t23 -16q419 -436 419 -930zM742 325q0 135 -121 340q-97 164 -204 275q-73 -121 -131 -264 q-72 -177 -72 -279q0 -180 109 -180q60 0 92 35q18 19 33 64q12 35 23 35q14 0 29 -37q20 -49 39 -69q35 -36 102 -36q45 0 74 36q27 33 27 80z" />
<glyph unicode="&#x665;" horiz-adv-x="981" d="M903 393q0 -161 -75 -298q-83 -152 -201 -152q-102 0 -163 84q-80 -72 -187 -72q-101 0 -157 98q-46 81 -46 189q0 154 104 411q86 212 175 347l-53 60l132 241q21 38 29 38t23 -16q419 -436 419 -930zM742 325q0 135 -121 340q-97 164 -204 275q-73 -121 -131 -264 q-72 -177 -72 -279q0 -180 109 -180q60 0 92 35q18 19 33 64q12 35 23 35q14 0 29 -37q20 -49 39 -69q35 -36 102 -36q45 0 74 36q27 33 27 80z" />
<glyph unicode="6" horiz-adv-x="981" d="M913 910q-4 -35 -40 -158q-38 -131 -51 -140q-25 -9 -90 -33q-97 -38 -221 -153q-103 -97 -181 -203q-81 -89 -165 -225q-43 -69 -72 -69q-28 0 -28 61q0 133 134 353q69 113 167 231q-120 33 -171 78q-63 56 -63 161q0 131 122 274q176 207 305 207q76 0 150 -50 q82 -56 82 -128q0 -61 -44 -61q-24 0 -98 21t-113 21q-105 0 -176 -73q-59 -60 -59 -118q0 -117 228 -117q50 0 196 81.5t163 81.5q27 0 27 -26q0 -8 -2 -16z" />
<glyph unicode="&#x666;" horiz-adv-x="981" d="M913 910q-4 -35 -40 -158q-38 -131 -51 -140q-25 -9 -90 -33q-97 -38 -221 -153q-103 -97 -181 -203q-81 -89 -165 -225q-43 -69 -72 -69q-28 0 -28 61q0 133 134 353q69 113 167 231q-120 33 -171 78q-63 56 -63 161q0 131 122 274q176 207 305 207q76 0 150 -50 q82 -56 82 -128q0 -61 -44 -61q-24 0 -98 21t-113 21q-105 0 -176 -73q-59 -60 -59 -118q0 -117 228 -117q50 0 196 81.5t163 81.5q27 0 27 -26q0 -8 -2 -16z" />
<glyph unicode="7" horiz-adv-x="981" d="M953 1000q-97 -105 -159 -195q-106 -153 -169 -343q-46 -138 -89 -373q-26 -139 -49 -139q-28 0 -52 142q-38 224 -91 389q-90 280 -311 515l66 285q8 35 24 35q13 0 31 -20q118 -131 211 -322q90 -185 127 -365q61 365 321 675q23 27 33 27q11 0 23 -39z" />
<glyph unicode="&#x667;" horiz-adv-x="981" d="M953 1000q-97 -105 -159 -195q-106 -153 -169 -343q-46 -138 -89 -373q-26 -139 -49 -139q-28 0 -52 142q-38 224 -91 389q-90 280 -311 515l66 285q8 35 24 35q13 0 31 -20q118 -131 211 -322q90 -185 127 -365q61 365 321 675q23 27 33 27q11 0 23 -39z" />
<glyph unicode="8" horiz-adv-x="981" d="M7 255q102 111 160 194q173 249 258 717q25 139 49 139q27 0 52 -143q41 -235 90 -388q90 -279 312 -515l-66 -285q-8 -35 -24 -35q-13 0 -31 20q-119 132 -211 322q-90 185 -127 365q-61 -365 -321 -675q-23 -27 -33 -27q-12 0 -24 39z" />
<glyph unicode="&#x668;" horiz-adv-x="981" d="M7 255q102 111 160 194q173 249 258 717q25 139 49 139q27 0 52 -143q41 -235 90 -388q90 -279 312 -515l-66 -285q-8 -35 -24 -35q-13 0 -31 20q-119 132 -211 322q-90 185 -127 365q-61 -365 -321 -675q-23 -27 -33 -27q-12 0 -24 39z" />
<glyph unicode="9" horiz-adv-x="990" d="M865 257l-23 -322q-231 36 -303 308q-34 129 -31 380q-90 -9 -143 -9q-246 0 -246 181q0 108 68 279q93 234 233 234q256 0 256 -517q0 -268 40 -372q34 -88 149 -162zM489 896q-3 53 -36 97q-37 50 -87 50q-46 0 -79 -27t-33 -72q0 -60 124 -60q57 0 111 12z" />
<glyph unicode="&#x669;" horiz-adv-x="990" d="M865 257l-23 -322q-231 36 -303 308q-34 129 -31 380q-90 -9 -143 -9q-246 0 -246 181q0 108 68 279q93 234 233 234q256 0 256 -517q0 -268 40 -372q34 -88 149 -162zM489 896q-3 53 -36 97q-37 50 -87 50q-46 0 -79 -27t-33 -72q0 -60 124 -60q57 0 111 12z" />
<glyph unicode=":" horiz-adv-x="473" d="M470 121q0 -61 -42 -103.5t-103 -42.5q-62 0 -104 42t-42 104t42 104t104 42q61 0 103 -42.5t42 -103.5zM470 801q0 -62 -41.5 -104.5t-103.5 -42.5t-104 42.5t-42 104.5t42 104t104 42q61 0 103 -42.5t42 -103.5z" />
<glyph unicode="=" horiz-adv-x="1001" d="M919 488h-836v107h836v-107zM919 227h-836v107h836v-107z" />
<glyph unicode="[" horiz-adv-x="3575" d="M3334 167q10 -2 10 -12q0 -6 -6 -15q-4 -4 -4 -6h-2q-3 8 -10 8q-15 0 -15 -14q0 -15 18 -15q15 0 32 18q7 5 7 8h2q0 -22 -34 -52q-43 -38 -36 -56q5 -12 46 -12q4 3 18 4l40 11v-4q-37 -32 -78 -32q-38 0 -38 32q0 7 5 22q12 35 21 35v1q-6 5 -21 18q-2 7 2 19 q19 40 43 40v2zM1843 488q8 -88 -1 -142q-18 -110 -76 -146q-13 -7 -35 -7q-51 0 -83 74q-2 0 -2 -1q-25 -52 -42 -66q-26 -19 -53 -19q-49 0 -64 53q-6 18 -6 27h-3q-57 -98 -144 -91q-60 3 -69 76q-2 7 -3 8v3q-33 -26 -51 -50q-47 -52 -113 -52q-100 0 -100 135h-2v-2h-2 q-2 -16 -8 -40q-9 -49 -26 -81q-31 -59 -97 -92q-39 -15 -76 -26q-71 -19 -100 -19v5q20 12 53 32l85 52q116 70 145 158q19 59 13 181q-1 34 -2 85q-7 155 -23 323q-16 -7 -47 -19l-141 -56q2 33 17 44q17 8 35 16l96 36q34 13 34 17v16q-5 22 -11 58q-1 12 11 57 q2 19 10 19q19 -58 30 -122q1 -7 2 -16q2 0 2 1q22 6 49 17l544 204q45 17 51 17q-4 -23 -17 -33q-19 -10 -31 -12l-92 -37l-502 -191q13 -69 17 -184l7 -192q3 -101 12 -206q11 -52 35 -64q11 -7 52 -7q39 5 72 29q25 19 59 50l22 22q6 5 10 5h6v-5q-1 -4 -2 -18 q-4 -11 0 -22q0 -41 55 -45l32 -2q6 2 7 2l14 4l21 9q37 28 95 85h1v-2q0 -6 -5 -33q-2 -13 10 -30t25 -20q5 -1 29 -1q51 16 88 84q6 11 14 8q1 -7 1 -14q0 -5 -1 -12q2 -46 44 -56l27 -1q4 1 7 1l12 6q16 8 38 23q11 20 5 117l-8 127q-15 202 -38 521q-2 28 -4 116 q-11 27 -11 45q3 30 25 61q15 -22 17 -35l42 -113q5 -15 3 -23q-9 1 -33 25v1h-1v-3zM1917 1185q-5 22 -5 21q2 35 24 65q15 -18 17 -31q25 -68 43 -118q6 -21 2 -21v0q-9 0 -17 9l-15 15v3h-2l2 -32l51 -729q7 -107 -30 -186q-6 -14 -9 -11h-2v0q0 16 2 52q4 32 3 51l-6 98 zM2076 1159q0 12 19 35q6 10 22 2q41 -15 63 -95q3 -17 4 -25h2q6 25 16 79q12 49 43 67q38 0 38 -43q0 -24 -11 -24q-2 0 -13 9t-17 9q-3 0 -6 -1q-14 -6 -23 -52l-21 -90l-4 -10q17 0 44.5 -21.5t22.5 -37.5q-4 -32 -33 -41q-67 -20 -71 -31q-2 -2 4 -23q33 -102 28 -190 q-2 -27 -11 -58h-1l-2 67q-12 63 -33 188q-1 11 -1 16q2 48 38 64q19 5 26 8q-10 12 -19 12q-4 0 -9 -2q-11 -8 -13 -16l-9 -7v1h-2q0 27 8 48q14 17 18 23v10q-6 34 -27 77q-6 13 -13 23q-17 2 -28 -1q-6 1 -17.5 12t-11.5 18zM2526 1006q-48 -24 -91 -24q-39 0 -36 30 q5 25 66 66q14 12 23 23v4h-1q-42 5 -34 38q4 15 8 26l-1 14q-2 13 16 24q30 0 64 -29q23 -20 23 -40q2 -8 -3.5 -23.5t-12.5 -19.5q-6 -1 -23 1q-19 5 -23 5q-23 -43 -53 -59q-36 -22 -36 -24q0 -8 46 -8q3 2 14 2q27 5 40 6q43 10 48 12v-2zM2514 1158q-1 -21 -2 -33 l36 -5q1 18 -34 38zM2465 1146q0 -9 11.5 -13.5t19.5 -2.5q5 2 3 16q-5 17 -17 17q-15 -13 -17 -17zM1106 1034q-7 -6 -12 -9h-1v1h1q12 14 35 43q30 36 30 55q0 11 -12 14q-12 4 -22 -2l-9 -6h-3q3 53 36 53v1q32 0 35 -25q6 -60 -78 -125zM782 942q-14 2 -20 13 q-4 8 -5 27q-7 52 26 123q6 12 16 30q2 -3 0 -10q-27 -97 -27 -107q0 -36 21 -36q11 0 20 14l11 16h1q-16 -75 -43 -70zM2319 838l194 73l410 150q1 -1 1 -3q0 -18 -14 -33q-16 -7 -43 -17q-178 -65 -478 -180q-63 -23 -135 -62l-3 -5v-3q3 -7 27 -15.5t26 -16.5 q1 -10 0 -24q-2 -4 -2 -8q-60 5 -69 36q-5 16 9 43q13 26 29.5 39t47.5 26zM3511 375h6q-11 -34 -20 -51q-30 -36 -50 -51q-135 -100 -245 -78q-23 9 -33 12q-116 52 -116 168h-1q-3 -122 -93 -132q-74 -9 -86 68q0 9 -1 9v2q-29 -21 -41 -40q-55 -62 -120 -62q-69 0 -82 66 q-3 16 0 51q5 42 17 42l1 -10q1 -15 4 -38q8 -35 75 -35q13 2 19 2q22 9 25 9q22 9 50 30q4 2 41 40q16 12 29 23l5 -1q4 -1 6 -5l-3 -23q0 -42 31 -53q7 -2 25 -2h11q49 18 61 44q9 19 9 79q0 26 -1 79q-11 270 -23 343l-17 110q-1 11 8 47q6 23 11 28q9 -18 10 -29 q23 -92 34 -170q8 -53 13 -201q5 -130 12 -204q14 -112 76 -149q1 -1 1 -3h2v2q-30 34 -30 94t35 103q38 47 97 50q6 1 25 1q71 0 136 -51q17 -12 17 -17h-3q-21 4 -33 7q-18 8 -45 10q-90 7 -165 -31q-23 -12 -28 -17q-3 -9 5 -42q23 -86 98 -117q25 -11 59 -11 q62 11 155 83q13 10 27 21zM1339 864l350 129q4 -3 4 -6q0 -4 -3 -9q-6 -17 -10 -23q-16 -6 -23 -9l-68 -26q-66 -24 -168 -59q-174 -67 -222 -92q-28 -15 -28 -21q0 -7 25 -17.5t25 -12.5v-34q-12 -2 -37 6q-33 14 -33 36q0 20 18 48t35 36q58 25 135 54zM494 900 q-5 10 -5 30q0 13 3 33q2 4 5 8q19 -12 27 -18q46 -34 93 -76q2 -4 0 -5q-2 -3 -11 -3q-6 0 -12 1l-24 7v-2q41 -58 71 -98l45 -57q161 -202 217 -307q26 -49 33 -89q7 -32 -7 -111h-2v3q-4 10 -5 20l-9 46q-21 88 -126 223q-34 43 -101 129l-112 149q-23 33 -32 49 q-18 23 -48 68zM3151 740q-31 3 -28 59q2 65 31 124q7 17 15 26q1 -2 0 -9q-27 -88 -27 -123t22 -34q8 0 20 17l11 17h2q-8 -81 -46 -77zM2859 904q1 -4 -8 -26.5t-9 -26.5q37 -21 46 -57q3 -13 3 -25q0 -22 -10 -43q-20 -33 -57 -33q-34 0 -35 38q0 5 6 38q11 59 30 97 q16 34 26 41q6 0 8 -3zM2875 766q0 16 -51 41q-18 -43 -18 -53q0 -18 25 -18q44 17 44 30zM378 660q-13 4 -19 12q-11 20 -7 48q4 37 8 51q9 31 37 82q1 -2 0 -10q-26 -100 -26 -107q0 -37 20 -35q8 0 20 16l10 14h2q-19 -74 -45 -71zM1643 492q-20 1 -20 39q0 24 17 76 q14 47 12 75q-4 34 -34 72q-11 15 -14 21q-2 8 12 27q11 -8 24 -25q28 -36 28 -92q0 -26 -25 -96q-7 -23 -6 -44q3 -22 14 -22q12 0 25 25q2 -2 2 -7q0 -7 -4 -19q-14 -35 -31 -30zM3405 719q-86 -32 -277 -107q-8 -4 -16 -6v1q12 27 16 41q15 7 21 9l279 101q4 -1 2 -10 q-7 -23 -25 -29zM2449 189q-53 25 -110 21q-43 -4 -94 -33q-92 -64 -152 -113q-79 -66 -112 -70q-46 -5 -79 36q-28 37 -26 84q1 51 26 115q31 75 39 75v1h2v-1h2q-10 -34 -17 -56q-34 -99 -34 -131q0 -65 64 -65q6 1 9 1q45 14 75 41q134 113 185 142q57 34 87 41l22 5h1 v42q0 66 64 100q11 7 66 29q21 8 17 8q-12 37 -12 47v20q0 51 34 101q11 12 29 38q4 17 2 27q2 22 9 38q31 -12 47 -22q50 -25 48 -33q-1 -2 -33 -2v-4q75 -51 111 -73q38 -32 38 -88q0 -74 -41 -94q-38 -20 -134 0q-19 4 -35 8q-10 -4 -16 -7q-14 -6 -41 -18l-66 -32 q-17 -8 -46 -20q-19 -12 -19 -21q0 -14 45 -39q19 -10 44 -24q13 -6 28 -14q2 -2 2 -10t-2 -21q-5 -23 -9 -31q-2 -6 -18 2zM2629 582q-4 -43 -22 -98q56 -9 101 -9q5 0 8 1q12 5 18 8q2 5 0 16q-5 13 -69 55q-19 12 -36 27zM2554 629q-61 -36 -61 -81q0 -20 21 -36t40 -16 q16 6 23 11q19 18 25 38q4 18 -8.5 48t-28.5 33zM133 654q-24 5 -23 23q7 23 18 29q5 4 13 0q31 -12 48 -83l3 -9q3 18 9 45q12 51 35 65q24 -1 29 -26q4 -26 -12 -26q-13 18 -21 15q-17 -5 -27 -79q-4 -13 -13 -33h5q44 -23 48 -44q0 -18 -12 -27q-32 -8 -67 -29l9 -35 q12 -45 13 -69q4 -37 0 -73q-1 -8 -5 -28h-2v1q0 6 -1 27q-4 69 -18 131q-9 35 -8 52q4 21 17 32q6 7 32 15q0 2 -2 2q-7 6 -13 6q-9 0 -19 -11q-1 -5 -3 -7h-3q0 37 17 52q2 2 5 3q-22 65 -29 75q-12 9 -18 9q-3 -2 -5 -3zM883 507v0v0zM884 506v1h-1q0 3 1 27q3 50 -26 84 q-12 12 -33 35q3 2 10 24q19 -10 24 -14q45 -45 38 -116q0 -29 -13 -41zM1380 547v42q-8 12 -14 17q-2 7 6.5 21t14.5 15q7 1 9 -8q-1 4 -2 -50q-1 -41 27 -41q10 8 18 11q8 10 8 27q0 8 -3 26t-3 27q0 25 12 25q6 -18 13 -47q3 -58 35 -58q11 7 11 11q-2 4 -10 19 q-15 36 -14 57q1 11 12 26q6 -19 8 -30q8 -19 17 -53q11 -33 -15 -61q-9 -9 -17 -9q-21 0 -31 22q-4 9 -4 12h-4q-7 -35 -37 -42q-31 -6 -37 41zM2243 458q-47 -52 -138 -87q-34 -14 -42 -14v1h2v2q10 7 89 53q56 33 82 62q4 2 5 2v2q-34 14 -34 41q0 34 46 55q13 0 19 -3 q6 -7 6 -21q0 -12 -3 -29l-3 -20q16 -7 20 -14q2 -4 -4.5 -17t-10.5 -13l-19 14q-7 -7 -15 -14zM2231 536q-1 -6 8 -14.5t16 -7.5q5 3 3 11q0 16 -13 20zM1103 386v2q67 76 67 99q0 14 -19 14q-6 0 -14 -3l-12 -5h-1q5 50 33 50v2q33 0 38 -23q5 -30 -33 -83t-59 -53z M353 400h3q15 17 29 36q21 25 16 39q0 9 -15 8q-14 -2 -14 -7h-1v1h-2v2q8 23 29 38q24 0 24 -30q0 -44 -53 -79q-12 -9 -16 -9v1zM616 266q-13 16 -19 26q-9 0 -49 -19q-72 -32 -125 -69q-41 -28 -88 -75q-42 -46 -83 -92q-60 -59 -96 -59q-44 0 -70 38q-26 33 -26 79 q0 59 39 142q20 42 25 51h4q-5 -21 -15 -52q-33 -93 -33 -132q0 -55 37 -65q7 -3 27 -3q57 17 121 88q81 87 128 122q98 72 177 100q-18 36 -19 44q-6 18 -6 33q0 31 27 52q20 9 31 13q19 0 27 -4q23 -7 64 -35.5t48 -46.5v-12q0 -25 -17 -53q-45 -19 -84 -29q-17 -4 -19 -7 q-1 -14 -3 -22zM597 357h2q51 18 64 22q-4 16 -38 27q-28 11 -47 11q-3 -1 -6 -1q11 -30 18 -43.5t7 -15.5zM3082 111q5 6 5 8q2 -8 -5 -27.5t-14 -25.5t-16 -6q-20 1 -20 41q0 47 34 117q3 -5 -6 -30q-17 -52 -14 -76q3 -30 24 -17q5 4 12 16zM666 88h2q-17 -74 -44 -69 q-24 4 -27 38q-5 57 44 154q1 -5 0 -11q-25 -102 -25 -106q0 -37 20 -37q9 1 20 18zM2619 165q23 8 27 11h6q-5 -25 -16 -34q-19 -8 -28 -11l-277 -108q6 32 17 44q11 5 17 5l204 75q23 8 50 18zM2876 165q12 -4 36 -20t24 -25q1 -16 -23 -50q-6 -5 -6 -3q-12 8 -18 11 l-34 24q-3 2 -3 4h-1q-16 -39 -25 -42q-1 0 -3 1l-56 37v4t11.5 26.5t13.5 26.5q6 4 50 -28l10 -9v-2h2q6 26 22 45zM469 153q28 -6 28 -40q0 -48 -67 -97q-17 -11 -19 -11q0 1 1 1q12 16 38.5 47t20.5 49q-2 6 -11 9q-9 1 -18 -3l-7 -6h-4q4 34 23 45q11 4 15 6zM1536 131 q9 -3 9 -19q0 -37 -17 -47q-7 -4 -39 4q-9 -9 -36 -21q-7 1 -32 5q-43 7 -105 -59q-42 -42 -89 -53v2h2q47 27 59 40q18 21 58 64q37 40 67 40q4 1 10 1q7 0 20.5 -3.5t20.5 -3.5q8 5 12 6q8 12 25 33h1v-1h3l-5 -21q13 -3 21 -3q7 0 7 3l-3 15q3 7 11 18z" />
<glyph unicode="]" horiz-adv-x="3923" d="M2658 95q-37 0 -79 17q-110 39 -145 104q-12 24 -18 53t-8 55q-5 64 -9 148q-3 107 -9 276l-11 163q-19 -5 -27 -11q-49 -19 -68 -30q3 36 18 47q42 20 75 32q1 4 -4 51q-11 128 -22 169q-6 19 -19 42q-25 -38 -34 -64l-7 -12h-2v2q-2 3 -2 12q0 53 32 109q11 18 21 25 q15 0 22 -10q16 -31 21 -51q18 -65 27 -176l6 -83h5v1q21 7 53 19l280 104q32 12 65 25q30 10 37 10q-6 -38 -41 -46l-60 -23l-252 -94q-79 -29 -82 -34q-1 -3 0 -31l5 -112q1 -21 4 -51l3 -124q4 -168 13 -235q14 -94 45 -127q7 -8 11 -9v-2h1q2 89 134 141q18 7 48 17v2 q-16 23 -16 59q0 67 35 119q15 21 33 44q1 9 0 14q1 16 1 22q2 11 7 30h10l71 -36q26 -14 23 -23q0 -1 -36 -3q13 -8 18 -14q13 -11 35 -25q26 -18 70 -45q36 -31 36 -90q0 -75 -42 -99q-38 -23 -143 0q-15 2 -38 8q-12 -3 -18 -6l-144 -67q-45 -23 -51 -28q-15 -13 30 -35 q26 -17 80 -37q33 -12 38 -17q2 -2 0 -34q-3 -25 -4 -26q-3 -11 -22 -10zM2823 454l-10 -34h2q47 -12 105 -12h10q20 15 20 20q0 21 -78 68q-21 15 -36 27q-2 -39 -13 -69zM2733 559q-48 -39 -41 -80q4 -18 25 -32.5t40 -14.5q7 0 23 14q23 18 28 38q3 18 -9 46.5t-27 36.5 q-5 5 -17 6q-15 -9 -22 -14zM2186 1105l47 -646q11 -139 10 -198q-1 -89 -42 -160v0v1h-3q0 20 3.5 55.5t3.5 55.5q-3 32 -4 60l-58 844q-4 59 -5 62q-6 23 -7 25q14 48 25 71q9 -4 35 -74q34 -84 34 -104q0 -3 -4 -3v-3q-5 3 -9 5q-11 14 -22 22q-1 2 -4 2v-3v-12z M2066 608q9 -144 8 -188q-1 -14 -7 -57q-17 -110 -80 -143q-19 -9 -37 -9q-47 0 -77 52q-8 23 -8 29h-5q-7 -17 -11 -22q-35 -70 -90 -70q-51 0 -66 48q-4 9 -8 39h-4q-60 -111 -161 -99q-59 7 -66 79q0 10 -3 11v1q-18 -9 -25 -20q-73 -87 -149 -87q-46 0 -77 36 q-20 21 -31 108v0q-8 -34 -20 -87q-11 -41 -48 -82q-76 -83 -242 -105q-12 -2 -15 0q-2 1 -2 3q20 12 53 32l78 48q100 62 133 109t45 115q5 29 5 85q0 36 -3 155q-4 100 -14 253l-12 106l-226 -89q5 35 17 47q26 11 45 17q79 29 157 60l1 1q0 12 -5.5 34t-5.5 34q0 5 5 24 l6 37q3 16 9 16h1q23 -81 30 -115q2 -8 4 -14q20 6 51 18l565 212q33 13 43 14q-2 -22 -15 -34q-25 -14 -42 -17l-89 -34l-509 -195q15 -118 17 -170q9 -169 11 -249q3 -110 5 -129q1 -28 6 -86q6 -52 34 -69q17 -9 45 -9q4 1 16 1q58 7 158 104q18 18 18 6q2 -3 2 -5 q0 -6 -2 -20.5t-2 -21.5q7 -50 85 -50q3 1 12 1q41 8 74 37q11 9 56 56q11 10 15 11q1 0 1 -2q2 -5 -2 -18.5t-4 -16.5q-2 -38 34 -52q8 -3 26 -3h7q12 7 14 7q44 21 78 85q7 11 14 8h4q1 -19 0 -30q5 -57 66 -57h9q46 13 59 31q7 24 8 40q3 33 -3 104l-39 581q-2 28 -4 57 q0 5 -6 52q-7 42 -7 44q3 25 25 69q16 -23 22 -42q42 -111 42 -118q9 -22 3 -22v-1q-21 14 -30 26l-4 4h-2v-1v0zM1300 1105l-15 -10h-2v4h1q6 8 16 19q55 61 53 84q-2 16 -20 16q-24 0 -24 -11q-1 0 -1 3q-1 2 0 12q4 30 33 42q33 0 38 -23q7 -34 -23 -78q-24 -35 -56 -58z M2497 1067q-22 -3 -28 32q-6 44 39 136q0 -5 -7 -34q-18 -55 -15 -81q5 -32 25 -15q9 8 13 17l4 7q3 -7 -1 -19q-11 -41 -30 -43zM965 1004q-28 1 -28 53q0 71 47 153q0 -6 -12 -41q-21 -64 -17 -98q4 -25 20 -25q10 0 26 21q6 9 6 12h3q-9 -78 -45 -75zM1479 923l236 84 q19 9 35 13l123 47q6 -2 4 -13q-8 -20 -15 -26q-22 -10 -35 -14q-140 -51 -399 -150q-47 -18 -80 -36q-20 -10 -26 -18q-3 -2 -3 -3q0 -2 1 -2q31 -22 54 -28q5 -8 4 -29q-3 -10 -4 -10q-9 -2 -37 5q-37 17 -37 41q0 22 20.5 52t38.5 37q57 27 120 50zM632 966v21q0 43 3 53 q21 -9 30 -17q15 -11 45 -34l49 -38q9 -9 9 -15q-5 -4 -13 -4q-14 0 -40 9q0 -1 1 -1q19 -30 38 -55q185 -242 238 -315q100 -138 114 -224q4 -27 -8 -112h-4l-13 73q-10 52 -53 118q-25 42 -74 109q-76 100 -194 256l-69 91q-20 35 -29 53q-15 21 -30 32zM3028 870 q-25 0 -25 42q0 70 39 128q0 -12 -11.5 -49.5t-11.5 -56.5q0 -28 21 -28q22 19 22 28q2 -4 -1 -17q-12 -47 -33 -47zM2836 1031v3q26 -3 56.5 -26.5t34.5 -48.5q1 -23 -13 -42q-17 -4 -30 -4q-12 0 -22 3q-16 -16 -23 -31q-19 -20 -54 -41l-17 -9q-1 -3 -1 -5q0 -8 54 -8 q2 2 13 2q27 4 38 8l48 10h2q-20 -14 -31 -24q-55 -27 -102 -27q-38 0 -38 27q3 24 28 46q23 14 44 31q15 12 23 22v3q-42 8 -37 38q4 17 8 29q-2 -4 -2 19q0 25 21 25zM2874 978q-1 -15 -1 -23t1 -9q3 -6 36 -6v1q-5 30 -36 37zM2857 949q3 10 3 17q0 18 -17 21 q-17 -12 -21 -23q-1 -3 0 -3q9 -13 35 -13v1zM3755 316h2q-17 -46 -30 -70q-34 -30 -54 -42q-89 -71 -189 -80q-36 -4 -69 5q-16 6 -37 16q-91 43 -109 134q-3 15 -6 34q-2 -34 -8 -48q-18 -73 -87 -88q-78 -14 -93 57q-3 25 -9 25q-33 -30 -56 -59q-49 -46 -114 -46 q-87 0 -87 95q0 29 6 56l6 11q2 6 5 7h4q2 -15 2 -41q7 -48 76 -48h17q5 2 8 2l25 7q31 11 56 32q9 7 47 45q11 9 31 26h4q5 -3 5 -7q0 -19 -3 -28q0 -57 56 -57q2 3 12 3h8q58 20 69 72q2 14 0 110q-5 228 -14 309l-4 51l-23 -9l-179 -71q-38 -15 -54 -20v2q15 29 20 42 q18 10 42 18l148 55q35 13 38 16v3q0 11 -2 29l-13 85q-3 6 6 44q6 27 12 35q12 -18 13 -32q9 -33 21 -88q1 -3 9 -57q3 -3 3 -4v1l107 39q19 8 42 15q1 0 1 -2h1q-6 -25 -16 -34q-19 -8 -28 -11l-74 -27l-30 -11q1 -9 5 -51l5 -101q2 -83 10 -214q3 -79 16 -121 q17 -58 39 -76q5 -5 34 -25h2q-38 41 -34 106q6 108 92 144q28 13 46 13h13q5 1 28 0q74 -4 135 -53q16 -14 16 -19q-25 4 -36 9q-23 7 -48 10q-93 10 -181 -34q-19 -11 -25 -17q-5 -6 3 -41q24 -104 118 -133q16 -4 54 -4q59 9 159 83q12 8 32 23q0 2 3 2v-2zM557 669 q-30 1 -30 51q0 63 46 153q3 -1 3 -3q-5 -23 -10 -35q-18 -58 -18 -86q0 -39 25 -39q16 13 25 31q0 2 3 2v0q1 -2 -3 -20q-15 -54 -41 -54zM1854 870q25 -11 41 -52q12 -36 12 -69q0 -42 -11 -73q-21 -58 -19 -75q2 -28 18 -26q4 2 13.5 11.5t9.5 14.5q2 -1 2 -6 q0 -6 -6 -20q-15 -39 -33 -34q-19 4 -20 41q0 11 26 107q8 27 5 54q-1 38 -32 77q-12 15 -20 23q-1 9 14 27zM2532 701v-5q25 -89 25 -153q0 -19 -7 -60h-1v1h-3q-2 87 -22 180q-8 35 -4 48q6 31 49 46v2v0q-7 6 -14 6q-9 0 -19 -13q-2 -2 -4 -5h-4q0 36 16 52q7 6 10 7 q10 0 15 -5q51 -19 47 -45q-6 -23 -33.5 -31t-38 -14t-12.5 -11zM319 696q-18 5 -23 20q-2 12 14 32q5 6 17 3q34 -8 51 -79q4 -13 4 -18h1v3q6 15 6 25q15 72 41 89q31 -2 31 -35q0 -13 -8 -18q-3 -2 -3 0q-18 14 -25 13q-12 -1 -21 -41q-2 -15 -10 -49q-3 -11 -8 -27 q-1 0 -1 -2q46 -12 54 -46q5 -14 -12 -30q-9 -4 -19 -6q-53 -12 -53 -24t8 -52q13 -44 15 -56q4 -28 4 -50q0 -12 -3 -22l-2 -26l-5 -13h-1q-1 29 -2.5 42.5t-15.5 89.5q-10 60 -10 88q5 40 40 52q3 1 11 2q-5 11 -15 11q-2 0 -7 -2q-9 -6 -12 -12l-5 -6h-2v2h-2q2 38 21 56 v8q-16 57 -31 78q-6 2 -12 2t-10 -2zM1090 625q0 -40 -17 -64h-2l4 38q0 39 -33 83q-18 19 -30 34q-2 3 12 27q15 -8 21 -17q45 -41 45 -101zM3373 632l209 75q2 -2 2 -6q0 -5 -2 -14q-6 -12 -14 -16q-10 -7 -18 -8q-76 -27 -217 -86q10 49 40 55zM1655 565v1h-2 q-10 -52 -51 -52q-28 0 -36 41q0 6 -3 63q-8 12 -12 17q-2 11 6.5 25.5t19.5 14.5q7 0 8 -12q2 -18 -1 -45q-7 -59 23 -59q15 0 26 14.5t11 30.5q0 10 -4 30.5t-4 30.5q0 11 4 22l6 9q8 -13 10 -21q6 -30 13 -75q5 -34 35 -28q16 1 15 12q-5 17 -11 24q-16 34 -16 56 q0 21 12 37q10 -19 11 -34q13 -44 22 -66q1 -19 -7 -42q-12 -34 -33 -34q-24 0 -37 29zM3105 660l-15 -44q12 -9 15 -12q28 -31 23 -61q-8 -41 -38 -51q-16 -5 -26 0q-15 4 -15 28q-1 25 15 74q17 54 33 66h8zM3115 543v4q0 7 -15 18.5t-25 12.5q-13 -24 -13 -38q0 -9 5 -15 h14zM1292 439q4 3 17 16q56 59 52 86q0 16 -19 16q-24 0 -24 -10q-3 0 -3 1q-1 3 0 11q7 30 36 45q30 0 36 -23q9 -36 -20 -79q-23 -33 -58 -59l-14 -9h-3v5zM515 423v-3h-3v4h2q10 12 28 34q24 26 24 43q0 9 -12 12q-5 1 -13.5 -3t-11.5 -4q3 28 25 42q29 0 30 -23 q1 -27 -20.5 -58.5t-48.5 -43.5zM775 324q-3 10 -4 10q-106 -42 -162 -77q-67 -41 -136 -115q-23 -24 -57 -61q-24 -24 -53 -54q-33 -29 -63 -29q-45 0 -75 41q-27 36 -27 85q0 29 26 112q26 90 43 90v3h1v-3h3q-9 -30 -14 -44q-39 -112 -39 -146q0 -59 36 -71q9 -4 37 -4 q46 16 98 67q140 139 170 164q66 49 160 90q19 8 19 14q-13 32 -22 47q-2 14 -2 26q0 44 36 65q17 6 28 7q13 0 30 -5q30 -11 65 -35q43 -29 48 -54q3 -6 -5 -34.5t-13 -33.5q-11 -4 -19 -7l-90 -29q2 -9 2 -17q0 -15 -7 -18q-6 -1 -14 16zM745 466q-3 -7 18 -50l8 -11 q51 15 67 23q1 1 1 4q-48 34 -94 34zM2339 195q21 19 21 28q2 -5 0 -19q-11 -43 -33 -43q-25 0 -25 39q0 70 38 129q0 -11 -11 -48.5t-11 -57.5q0 -28 21 -28zM2138 129q7 11 8 17q3 -5 -1 -24q-15 -61 -44 -61q-34 0 -34 51q-1 74 49 175q3 -1 3 -5q0 -3 -11 -37 q-23 -69 -19 -105q4 -34 23 -34q12 0 26 23zM801 101v1q0 -4 -4 -21q-14 -57 -40 -57q-30 3 -31 48q0 63 48 159q1 -2 0 -8l-9 -30q-23 -85 -16 -106q5 -20 23 -20q16 14 25 31q1 3 4 3zM603 181q29 0 34 -20q10 -32 -28 -83t-60 -51v1h1q16 18 34 41q30 37 30 55 q0 12 -13 12q-9 3 -18.5 -2t-13.5 -5q3 32 34 52zM1761 145q7 -6 7 -23q0 -41 -20 -50q-8 -3 -36 5q-10 -5 -15 -10q-12 -9 -24 -12q-4 -2 -37 5q-26 4 -52 -12q-41 -32 -66 -58q-43 -41 -85 -49h-2q12 11 19 13q35 21 93 85q30 33 59 48q16 8 28 8q9 3 28 -2t23 -5 q8 6 12 7q17 18 29 36h3v-2l-3 -23h31l-3 16q0 6 11 23zM2866 117q6 -4 2 -11q-6 -14 -16 -19l-25 -10q-108 -41 -188 -73q-17 -9 -23 -10q5 34 30 42q14 6 44 16zM3052 95q11 -1 37 -19t28 -27q3 -21 -25 -53q-2 -6 -7 -3l-53 35q-4 2 -4 3h-2v-1q-18 -26 -27 -42v-2 q-20 18 -63 45q2 9 14 34q8 21 14 25q8 4 53 -30l11 -11v3z" />
<glyph unicode="{" horiz-adv-x="2405" d="M631 997q-92 -37 -198 -81q8 20 13 32q14 7 38 16l111 46q16 6 32 13q2 3 -3 26q-3 27 -3 30q-3 18 8 49q2 4 5 12h3q12 -39 20 -75l7 -28l657 246q2 -2 2 -5t-2 -8q-7 -10 -11 -12q-35 -15 -46 -18l-596 -228l56 -342q19 -112 62 -145q20 -15 36 -23q37 -13 153 -13 q1 3 15 3h12q22 3 39 4q5 4 13 4q98 23 153 48q41 18 44 17h4q-2 -20 -6 -31q2 -42 52 -45l27 -1q32 7 56 26q10 9 47 45l15 14v2q5 -3 2 -16q0 -5 -5 -14q0 -34 30 -44q7 -1 26 -1q31 10 48 28q10 12 30 47q6 9 12 7q1 -5 1 -9v-22q4 -34 38 -41l23 -3q45 15 55 34 q7 16 5 57q0 4 -7 74l-37 363q-4 38 -3 41q19 67 28 73q6 0 25 -12q48 -27 101 -73q180 -159 180 -366q0 -110 -49 -185q-14 -23 -23 -30l-18 -19h-1q10 28 22 47q49 78 49 156q0 192 -202 358q-54 46 -70 44v-2q-1 -1 2 -33l9 -115q7 -60 16 -155q9 -110 9 -141 q-2 -38 -13 -82q-25 -98 -90 -98q-45 0 -73 67v-3q-36 -75 -84 -75q-49 0 -59 63q-3 6 -5 7l-17 -23q-48 -61 -103 -56q-59 3 -68 58q0 20 -5 20q-25 -9 -36 -14q-44 -22 -72 -32q-96 -31 -186 -31q-154 0 -207 86q-11 18 -19 49q-4 11 -4 18h-2v-2q-4 -24 -11 -50 q-12 -53 -20 -72q-26 -48 -88 -82q-47 -18 -68 -24q-58 -17 -87 -17v4l53 31q49 31 74 43q60 39 87 75q38 54 44 124q1 28 -6 80q-19 138 -46 310zM780 1110v0q45 53 54 69q9 22 -5 28q-10 4 -20 -1t-11 -5v1h-2q6 33 22 41q11 4 16 5q26 -1 26 -35q0 -44 -64 -95 q-10 -8 -16 -8zM931 925q129 52 215 83l446 161q2 -15 -14 -31q-12 -6 -14 -6l-666 -254q-69 -27 -69 -37q0 -9 20.5 -16.5t20.5 -8.5q4 -11 4 -16q0 -12 -2 -16v-1q-49 1 -61 28q-11 36 40 80q7 4 26 13zM268 994q-10 11 -11 12q-4 7 -4 26q0 11 3 26q1 6 2 9q18 -9 30 -19 l64 -48q2 -4 12 -13v0q-8 -4 -22 -3q-15 5 -20 5v-2h2q11 -17 19 -24q91 -97 172 -175q94 -93 119 -154q11 -27 15 -56q0 -8 -3 -47l-4 -29l-3 -10h-2q-15 83 -27 107q-30 60 -130 154.5t-144 146.5q-25 32 -68 94zM598 925q3 -2 -5 -41q-11 -44 -11 -46q0 -22 13 -21 q10 7 22 21q1 -6 1 -10q0 -22 -20 -37q-5 -3 -11 -3q-16 2 -19 25q-5 48 30 112zM1331 773q-10 29 -10 45v18l-8 7q-3 4 -1 10q1 16 15 20q7 4 8 -7q0 -12 -4 -38q3 -32 20 -32q21 0 25 26q0 8 -3.5 23.5t-3.5 20.5q-2 23 11 23q7 -30 9 -31q1 -23 3 -29q4 -19 15 -22 q7 -2 11 0q7 1 7 9q-2 9 -7 14q-8 21 -11 36q-1 12 10 29q5 -13 7 -25q15 -59 11 -70q-6 -13 -11 -18q-8 -10 -16 -10q-12 0 -24 19q-1 5 -2 11q-21 -59 -51 -29zM260 743q0 59 30 108q0 -10 -8 -41t-8 -46q0 -24 16 -24q19 17 19 24q1 -4 0 -15q-10 -38 -27 -38 q-22 0 -22 32zM2252 233q-3 -8 -7 -20q-11 -29 -16 -36q-13 -8 -18 -12q-118 -93 -213 -88q-23 1 -51 13q-80 34 -95 114q-5 22 -5 32h-2q-5 -116 -94 -116q-18 0 -37 9q-24 13 -38 77q-31 -17 -48 -24q-301 -122 -626 -122q-273 0 -327 71q-10 10 -21 30q-24 43 -38 43 q-39 0 -77 -68q-23 -52 -46.5 -102.5t-56.5 -50.5q-37 0 -60 56q-19 44 -23 86q-1 22 5 81q2 27 10 46q2 5 4 7h4v-1q0 -7 -2 -22q-2 -22 -4 -32q-1 -23 -1 -41q0 -103 43 -121q9 -6 30 -6q14 11 21 13q23 38 30 55q48 106 78 136q27 26 50 26q20 0 39 -26q17 -32 26 -45 q19 -29 35 -34q78 -36 353 -36h25q3 3 18 3h17q3 1 13 1q1 2 13 2h12h12q2 3 10 3q51 5 95 12l15 2l13 3l11 2l36 6q203 47 308 98q27 13 34 14l-2 -35q2 -52 53 -52q2 3 12 3q27 8 41 17q20 19 20 84q0 122 -1 158q-4 108 -25 248l-9 63q0 22 15 63q16 -9 32 -122l12 -86 q5 -106 13 -271q8 -105 37 -146q15 -19 35 -30l2 -2h1q-28 29 -28 83q0 85 69 119q22 7 43 14h14h20q60 -4 112 -44q13 -9 13 -13h-1v-2q-21 6 -65 17q-61 10 -141 -25q-24 -11 -29 -17q-4 -7 0 -32q18 -86 91 -110q14 -6 52 -6q53 8 122 63q16 12 34 24q1 0 4 -1zM1080 676 q-8 -38 -19 -38v3h-1q-2 23 -20 64q-5 7 -11 14q-1 0 -1 -1q-7 -2 -10 -2q-19 0 -22 19q0 16 20 29q19 0 36 -34q14 -28 14 -51h3v3q3 18 12 54q6 23 18 33q3 4 11 8q23 -4 23 -29q0 -8 -5 -13q-4 -3 -12.5 2.5l-8.5 5.5q-6 3 -8 0q-7 -7 -19 -67zM2070 620q-5 -2 -9 -4h-1 v2q7 7 23 25q21 23 21 36q0 8 -10 10q-4 1 -11 -2t-11 -3q4 22 22 34q25 0 25 -17q1 -42 -49 -81zM303 472q0 -31 -6 -31q-3 5 -7 6q-2 8 -4 14q-4 2 -20 -6q-62 -29 -68 -80q-3 -33 5 -64q24 -101 32 -144q10 -54 10 -86q-3 -23 -4 -38l-5 -16v1q-6 23 -7 47 q-2 43 -24.5 129t-26.5 130q-4 105 41 150q27 21 39 29q1 0 2 1q-12 25 -18 37q-5 15 -5 28q0 28 23 46q16 9 26 10q19 0 27 -1q27 -9 56 -30q37 -26 40 -45q2 -7 -5.5 -30t-11.5 -27q-23 -9 -42 -14zM286 525q4 -3 44 15q9 1 12 3q0 2 -1 2q-10 16 -55 28q-10 2 -21 2v-2 h-2q-3 -4 7.5 -24.5t15.5 -23.5zM493 632q0 -4 -1 -9q-17 -68 -17 -78q0 -25 14 -23q15 12 21 21v2q2 -11 -7.5 -31.5t-21.5 -20.5q-16 0 -19 27q-6 46 31 112zM1976 454l48 18l128 46l62 23q5 -1 5 -7q-5 -18 -54 -38l-226 -88v0h2q5 31 15.5 38t19.5 8zM353 357 q3 -3 -1 -16q-9 -34 -28 -34t-19 34q0 42 31 102q0 -4 -6 -26q-13 -46 -11 -65q3 -28 20 -15zM1501 331l250 92q2 -4 0 -12q-6 -13 -11 -19q-17 -8 -38 -15q-125 -47 -229 -90v3l15 34q8 6 13 7zM928 369q-10 -28 -12 -35q33 -21 41 -52q7 -33 -9.5 -60t-49.5 -27 q-26 0 -28 28q-2 14 4 40q26 109 51 120q6 -1 6 -4t-3 -10zM942 254q4 10 -13.5 23t-30.5 16q-12 -26 -12 -45q0 -15 18 -15q32 10 38 21zM1316 336q1 1 10 14.5t13 13.5v-1h1q-5 -11 -5 -17h2q9 -7 14 -7q6 0 8 4v14q0 7 10 18q7 -10 5 -34q-5 -23 -19 -25q-8 -3 -30 4 q-17 -22 -41 -20q-14 5 -17 5q-10 3 -28 -1q-46 -29 -67 -51q-38 -37 -76 -46v3q29 12 104 90q28 30 59 35q6 -1 33 -5h14zM1435 -17l6 7q2 -1 -1 -12q-9 -37 -28 -37q-14 0 -20 23q-2 9 0 26q18 62 31 88l1 -1q-4 -16 -7 -22q-13 -47 -11 -66t12 -19t17 13zM1604 69 q8 -2 31 -18t23 -21q0 -7 -9.5 -25.5t-14.5 -21.5h-1l-47 31q-3 0 -3 2h-1q-11 -30 -22 -35h-3l-46 32q-1 3 -4 6q0 8 21 41q2 4 5 4q4 0 27 -15t23 -19h3v1zM705 57q4 -2 1 -8q-4 -10 -13 -15q-3 -3 -21 -10q-41 -13 -136 -52l-36 -17q3 34 22 34zM1852 55q21 0 21 -16 q3 -43 -44 -79q-11 -8 -15 -8v0v0q8 8 11 12q34 41 32 50q0 13 -14 10q-10 0 -10 -5h-3v3h-1q4 31 23 31v2zM2124 55q19 0 21 -15q4 -44 -45 -80q-12 -8 -13 -8v0v0q3 5 11 11q32 41 31 51q0 13 -15 10q-10 0 -10 -5h-2v3h-2q4 31 24 31v2z" />
<glyph unicode="}" horiz-adv-x="3493" d="M3427 331q2 -2 -8 -24q-10 -30 -19 -44q-10 -9 -28 -22q-137 -106 -249 -101q-22 1 -64 19q-93 40 -115 134q-6 29 -6 41h-2q-3 -141 -118 -141q-93 0 -89 77v17q-3 0 -3 -1q-49 -34 -77 -46q-9 -6 -24 -9h1q12 -11 18 -13q35 -29 35 -82q0 -79 -52 -94q-12 -2 -22 -2 q-88 0 -135 121q-10 28 -14 52q-9 7 -16 10v11l-39 -8q-30 -7 -55 -7q-68 0 -98 52q-16 36 -25 152q-2 29 -3 78q0 4 -9 209q-5 114 -5 207l-29 -10q-34 -16 -71 -30q0 -2 -1 -2q8 33 16 45q3 3 38.5 18t40.5 15q2 4 0 51q-1 42 -15 131q-8 61 -23 72q-2 4 -2 3 q-10 -4 -25 -38.5t-18 -34.5q-4 28 14 82q19 62 41 62v2q31 -8 48 -100q9 -51 16 -130q4 -37 5 -60.5t3 -25.5v3l420 155h12q-9 -26 -20 -35q-20 -11 -31 -14q-25 -10 -64 -24l-221 -82q-47 -17 -96 -40v-45q3 -47 4 -114l8 -232q2 -49 4 -107q5 -85 27 -112q18 -20 74 -20 q4 2 42 5q33 11 51 15q11 21 14 43q47 151 68 201q5 6 8 6q8 -29 10 -50q5 -36 13 -89q3 -13 3 -26q0 -22 -5 -47q-6 -42 -18 -65q-6 -6 -3 -6q3 -1 28 3q82 16 143 56l31 19q6 4 10 2v-38q0 -42 51 -54q4 -2 36 -2q52 15 64 40q11 18 11 77v77q0 238 -36 462q-5 26 -5 37 q0 21 8 57q7 20 14 20q47 -150 57 -402q3 -63 5 -158q3 -42 10 -101q19 -103 78 -134q4 -2 4 -3v0v1q-33 38 -33 101q0 102 85 145q27 14 43 14h8q3 1 15 1q5 3 27 0q73 -2 137 -53q14 -11 14 -15h-1q-25 3 -39 7q-33 12 -68 12q-96 0 -162 -41q-15 -9 -18 -12q-8 -9 3 -45 q27 -99 112 -127q16 -7 59 -7q60 10 148 78q34 26 42 30q2 0 2 -3zM2483 329q55 17 64 57q1 13 -7 45t-16 41l-13 -33q-16 -39 -26 -76q-8 -33 -8 -37h6v3zM2648 117q7 14 -33 42q-48 34 -91 39q17 -62 76 -85q8 -2 41 -2zM2049 997l47 -658q1 -16 1 -57q0 -83 -30 -160 q-7 -21 -13 -21v3q-1 2 0 24q2 31 4 48q2 44 -8 178l-49 725q-5 26 -5 43q0 43 -3 54l-8 25q9 31 16 49l10 19q15 -25 21 -45l23 -61q26 -66 22 -73q-1 -1 -2 -1q-5 0 -15 10q-16 12 -17 17h-1v-3h-1q0 3 8 -116zM1930 449q-4 -70 -7 -85q-27 -153 -117 -153q-34 0 -57 23 q-24 37 -30 58h-3q-33 -92 -94 -93q-81 -3 -81 87q-1 0 -1 -4h-3q-53 -98 -148 -95q-58 1 -72 46q-3 8 -6 42q-3 3 -6 2q-34 -28 -55 -57q-50 -48 -114 -48q-79 0 -99 86q-3 12 -8 58h-1q-23 -103 -35 -128q-11 -23 -41 -52q-57 -54 -162 -79q-52 -14 -70 -15h-19v1 q7 6 23 17q172 101 205 130q76 73 87 215v20q-2 27 -2 18q0 229 -24 459l-5 40h-2l-22 -10l-201 -79q5 36 19 47q12 7 37 16l165 62l-11 68q11 79 20 79q24 -82 33 -132v0v1q37 12 53 18l431 164q37 15 125 46q46 18 50 18q-6 -24 -17 -36q-25 -11 -35 -15q-39 -13 -106 -39 l-467 -179q-26 -10 -26 -12q0 -11 6 -68q12 -160 20 -373q2 -54 4 -139l10 -68q10 -41 34 -53q12 -6 49 -6q3 1 12 1q41 6 84 40l69 62q10 9 17 5q1 -3 -2 -31q-2 -11 2 -22q12 -42 89 -42q41 6 74 31q13 16 56 59q8 5 18 16q5 -4 3 -17q-3 -8 -5 -17q-5 -41 31 -55 q9 -4 30 -4q61 17 98 91q7 13 13 10q4 -4 4 -10v-28q6 -51 70 -51q5 2 7 2q51 16 60 39q7 16 4 77q-5 71 -30 447l-17 252q-4 59 -7 70q-5 16 -5 19q3 26 25 67q4 -2 7 -5q9 -18 9 -21l18 -44q34 -85 34 -109q-10 0 -21 11l-16 15v2h-1q0 -5 4 -51l30 -431q4 -35 7 -96z M1202 1260q36 0 36 -38q0 -64 -80 -121q-15 -11 -18 -11v4h1q5 5 43 52q33 37 23 56q-2 12 -14 12q-5 0 -14 -3q-10 -7 -13 -9h-1v2h-4q8 26 14 36q8 13 27 20zM2334 1076q-27 0 -27 41q0 76 41 126q0 -6 -8 -30q-20 -58 -16 -81q5 -22 17 -22q11 0 20 18l4 9q2 -1 2 -5 q0 -3 -2 -8q-9 -48 -31 -48zM824 1000q-26 0 -29 46q0 85 48 158q1 -5 -8 -33q-22 -60 -22 -93q0 -36 22 -36q12 0 23 16l11 15v3q1 -7 -3 -23q-14 -53 -42 -53zM1356 925l256 94q29 11 73 27l45 15q4 -1 4 -4q0 -4 -2 -6q-10 -23 -13 -26q-10 -6 -25 -13l-405 -151 q-46 -18 -78 -34t-32 -25q0 -7 25.5 -18t27.5 -13t2 -35q-16 -4 -43 7q-33 14 -33 36q0 23 18.5 52.5t39.5 38.5q61 26 140 55zM508 948l-13 13q-3 9 -3 39q0 28 4 37q28 -14 40 -25l82 -64q10 -8 10 -16q1 -2 0 -2q-3 -1 -10 -1q-14 0 -43 8v-1q102 -140 283 -377 q79 -106 106 -204q5 -21 -9 -122v1q-6 18 -7 25q-7 41 -10 53q-20 84 -137 236q-36 45 -105 134q-47 61 -92 122q-53 71 -84 128zM2626 1005q-5 -34 -15 -56q7 -8 22 -24q31 -29 26 -74q-4 -23 -7 -33q-22 -45 -72 -39q-19 4 -26 26q-7 27 17.5 107.5t47.5 95.5q7 -2 7 -3z M2608 830q33 13 33 25q0 11 -52 45q-17 -31 -17 -56q0 -16 24 -16q9 0 12 2zM3078 788q-11 -45 -33 -45q-25 0 -25 44q0 65 39 125q1 -2 -6 -25q-20 -57 -16 -85q4 -20 16 -20q11 0 21 17q5 8 5 9q1 -6 -1 -20zM418 665q-35 0 -28 65q8 72 46 140q3 -4 -8 -34 q-24 -71 -20 -98q4 -31 20 -31q14 0 25 23l8 11h3q-12 -76 -46 -76zM1707 866q24 -18 35 -34q22 -34 22 -83q0 -43 -11 -77q-22 -62 -21 -68q0 -31 15 -31q6 -1 17 9.5t11 17.5q1 -1 1 -6q0 -29 -21 -49q-6 -6 -14 -6q-21 1 -24 31q-5 29 15.5 83t16.5 83q-3 39 -53 105 q4 3 11 25zM2429 828q3 -51 -55 -96q-16 -12 -18 -12q0 3 14 18q39 46 39 62q-1 13 -16 11q-15 0 -15 -6h-4v2h-2q6 40 29 40v1q25 0 28 -20zM2470 652l392 147q10 -3 0 -22q-4 -10 -10 -13q-9 -5 -25 -11l-55 -22q-47 -18 -105 -38l-243 -95q6 31 19 44q17 9 27 10z M184 693q-21 1 -26 23q0 4 9 18.5t14 14.5q23 4 44 -38q12 -22 18 -63q5 23 16 68q11 41 35 53q29 -4 29 -37q0 -16 -11 -16q-1 0 -10.5 7.5t-15.5 4.5q-10 -8 -29 -86q-6 -24 -10 -34q17 -1 37 -18.5t17 -32.5q-5 -17 -12 -23q-12 -6 -18 -6q-53 -17 -53 -26q4 -9 12 -49 q5 -22 12 -78q1 -39 -2 -63q0 -10 -5 -25h-2q0 54 -3 62q-1 15 -8 56q-2 14 -10 49.5t-6 55.5q2 31 45 49q3 0 4 2q-8 5 -15 5q-10 0 -16 -7t-7 -8h-3q0 22 8 38q0 4 6.5 11.5t6.5 13.5q-12 43 -25 68q-6 8 -11 16q-3 0 -3 -2q-9 -3 -12 -3zM936 559h-5v2q1 2 3 26 q3 59 -63 123q-1 2 -1 8l13 23q15 -10 22 -17q43 -42 43 -102q0 -29 -7 -47q-5 -11 -5 -16zM3072 612l-60 -25q5 36 18 48q12 6 20 7l209 76q3 -1 3 -6t-3 -13q-7 -14 -12 -17q-10 -5 -15 -7q-93 -34 -160 -63zM1422.5 552.5q-2.5 16.5 -2.5 40.5v23q-13 18 -12 19 q2 32 26 36q6 1 8 -11q4 -15 0 -34t-4 -26q2 -43 31 -43q12 7 18 8q15 13 15 35q0 11 -6 31.5t-6 31.5q0 12 13 30h3v-3q8 -19 17 -53q2 -70 42 -70q8 10 11 15q-3 7 -10 24q-18 32 -18 54t15 39q6 -20 8 -34q13 -42 22 -64q3 -17 -5 -40q-15 -36 -36 -36q-23 0 -38 27 q-2 7 -2 12h-3q-9 -21 -12 -30q-15 -21 -37 -21q-13 0 -24 11.5t-13.5 28zM2784 625q0 -6 -8 -36q-17 -52 -15 -76q4 -20 18 -20q7 0 20 17q4 7 4 10q4 -9 -3 -29.5t-15 -26.5t-17 -6q-22 1 -22 42q0 52 38 125zM1149 436q77 82 69 109q-4 10 -16 10q-5 0 -11 -1 q-12 -6 -16 -9h-2v2h-1q13 49 40 54q35 0 35 -36q0 -65 -81 -123q-14 -10 -17 -10v4zM447 513q0 -43 -57 -82q-7 -6 -17 -12v1q2 0 2 3q49 52 49 75q0 8 -6 12q-7 1 -15 -2t-9 -3h-4q6 29 27 42q30 0 30 -34zM764 379q-13 -8 -24 -10q-17 -5 -50 -17l-30 -11q-5 0 -6 -16.5 t-6 -16.5q-6 -1 -12 12l-5 14q-109 -45 -166 -81q-46 -29 -100 -83q-28 -27 -89 -95q-70 -77 -117 -77q-41 0 -71 41q-28 36 -28 86q0 55 29 123q33 78 42 78q-7 -34 -14 -49q-37 -107 -37 -146q0 -71 67 -71q6 1 8 1q47 19 67 37q79 74 145 150q31 27 64 50q98 66 170 90 q-16 36 -23 54q-3 12 -3 24q0 41 33 64q11 6 21 6v3q25 0 32 -3q32 -8 69 -34q43 -30 49 -55q4 -4 4 -8q0 -10 -5 -26q-7 -25 -14 -34zM696 428q5 18 -65 35q-8 1 -25 1v-1q-2 0 -2 -2q0 -3 12 -29.5t15 -26.5q5 -3 34.5 8t30.5 15zM2003 145q-13 -84 -50 -84q-23 0 -30 43 q-1 9 0 35q3 65 50 147q2 -4 -8 -34q-22 -69 -22 -105q0 -41 24 -41q10 2 22 20l12 19h2zM661 102v-1h2q-14 -77 -45 -77q-36 3 -30 66q5 65 46 141q1 -5 -8 -33q-22 -65 -18 -100q4 -29 18 -29t27 19q7 11 7 14h1zM470 181q26 -1 29 -26q7 -67 -75 -121q-12 -7 -13 -10h-1 v3q68 79 63 101q-3 11 -21 8q-20 -2 -20 -8v1h-2q6 41 25 47zM1616 145q8 -6 8 -25q0 -39 -19 -48q-5 -1 -11 -1q-7 0 -18 1l-9 5q-12 -10 -41 -24q-6 1 -36 7q-20 4 -50 -13q-21 -12 -64 -57q-50 -49 -87 -49v4q46 25 61 41q21 22 62 65.5t77 43.5q2 3 31 -5q9 -2 21 -2 l14 10l11 15q10 15 12 16v2h4v-2l-4 -18q15 -7 29 -7h2l-2 18q0 9 9 23zM2913 70q12 -9 22 -18q6 -10 -20 -48q-3 -5 -8 -15q-12 9 -19 15l-39 24q-3 3 -6 2q-22 -42 -25 -42l-54 35q-8 7 -10 7q0 4 2 4q15 49 28 54q2 2 6 0q5 -1 30.5 -18.5t25.5 -20.5h2l13 28q3 7 10 18 q13 -3 42 -25z" />
<glyph unicode="&#xab;" horiz-adv-x="600" d="M486 592l-32 -34l-28 -37l-24 -36l-21 -39q-45 -90 -45 -172v-19t2.5 -24l3.5 -21t5 -18l13 -41l18 -41q12 -25 21 -40.5t23 -35.5q25 -36 56 -67l-22 -19q-41 33 -77 70l-30 34l-25 37q-58 91 -58 184q0 105 57 193l27 37l35 39l38 36l42 34zM296 592l-32 -34l-28 -37 l-24 -36l-21 -39q-45 -90 -45 -172v-19t2.5 -24l3.5 -21t5 -18l13 -41l18 -41q12 -25 21 -40.5t23 -35.5q25 -36 56 -67l-22 -19q-41 33 -77 70l-30 34l-25 37q-58 91 -58 184q0 105 57 193l27 37l35 39l38 36l42 34z" />
<glyph unicode="&#xb7;" horiz-adv-x="451" d="M326 768q0 -50 -35.5 -85t-85.5 -35q-49 0 -84.5 35.5t-35.5 84.5t34.5 85t83.5 36q51 0 87 -35t36 -86z" />
<glyph unicode="&#x2d9;" horiz-adv-x="451" d="M326 768q0 -50 -35.5 -85t-85.5 -35q-49 0 -84.5 35.5t-35.5 84.5t34.5 85t83.5 36q51 0 87 -35t36 -86z" />
<glyph unicode="&#xbb;" horiz-adv-x="600" d="M263 466l-27 37l-35 39l-38 36l-42 34l-21 -20l32 -34l28 -37l24 -36l21 -39q45 -90 45 -172v-15v-13q-2 -9 -2 -13q-3 -17 -4 -23t-5 -18l-13 -41l-18 -41q-12 -25 -21 -40.5t-23 -35.5q-25 -36 -56 -67l22 -19q41 33 77 70l30 34l25 37q58 91 58 184q0 105 -57 193z M453 466l-27 37l-35 39l-38 36l-42 34l-21 -20l32 -34l28 -37l24 -36l21 -39q45 -90 45 -172v-15v-13q-2 -9 -2 -13q-3 -17 -4 -23t-5 -18l-13 -41l-18 -41q-12 -25 -21 -40.5t-23 -35.5q-25 -36 -56 -67l22 -19q41 33 77 70l30 34l25 37q58 91 58 184q0 105 -57 193z" />
<glyph unicode="&#xd7;" horiz-adv-x="946" d="M802 219l-58 -57l-277 275l-277 -275l-59 57l275 278l-275 278l62 56l274 -276l277 276l58 -56l-279 -278z" />
<glyph unicode="&#xf7;" horiz-adv-x="990" d="M604 606q0 -47 -34.5 -81t-81.5 -34q-48 0 -82 33.5t-34 81.5t34 82.5t82 34.5t82 -34.5t34 -82.5zM880 340h-766v103h766v-103zM604 180q0 -48 -34 -82t-82 -34t-82 34t-34 82t34 82t82 34t82 -34t34 -82z" />
<glyph unicode="&#x60c;" horiz-adv-x="537" d="M434 156q0 -66 -43.5 -112t-108.5 -46q-154 0 -154 212q0 209 186 375q51 46 84 46q19 0 19 -16q0 -23 -38 -58q-49 -44 -89 -117q-45 -80 -45 -138q0 -9 2 -15q18 5 38 5q58 0 103.5 -39t45.5 -97z" />
</font>
</defs>
</svg>
